VERSION	0.00.00	1.03.00
FES_MODE	0
BPM_DEF	192.000	192.000	192.000	192.000
MET_DEF	4	4
RESOLUTION	384
CLK_DEF	384
COMPATIBLE_CODE	MA2

BPM	0	0	192.000
MET	0	0	4	4

HLD	2	0	5	672
TAP	3	288	4
HLD	4	0	4	672
TAP	5	288	3
HLD	6	0	3	384
TAP	7	0	2
TAP	7	192	2
TAP	8	0	1
TAP	8	192	1
XTP	9	0	0
XTP	9	0	7
XTP	9	96	0
XTP	9	96	7
XTP	9	192	1
XTP	9	192	6
TAP	10	0	5
TAP	10	96	5
TAP	10	192	6
TAP	10	288	6
TAP	11	0	7
TAP	11	96	7
XTP	11	192	0
XTP	11	192	1
TAP	12	0	2
TAP	12	96	2
TAP	12	192	1
TAP	12	288	1
TAP	13	0	0
TAP	13	96	0
XTP	13	192	6
XTP	13	192	7
TAP	14	0	5
TAP	14	96	5
TAP	14	192	6
TAP	14	288	6
TAP	15	0	7
TAP	15	96	7
XTP	15	192	0
XTP	15	192	1
XTP	15	288	0
XTP	15	288	1
TAP	16	0	2
TAP	16	96	2
TAP	16	192	1
TAP	16	288	1
XTP	17	0	0
XTP	17	0	7
XTP	17	96	0
XTP	17	96	7
BRK	17	192	1
BRK	17	192	6
HLD	18	0	5	480
TAP	19	96	4
TAP	19	192	4
HLD	20	0	2	480
TAP	21	96	3
TAP	21	192	3
HLD	22	0	5	480
TAP	23	96	4
TAP	23	192	4
TAP	24	0	3
TAP	24	96	3
TAP	24	192	3
TAP	25	0	2
TAP	25	96	2
XTP	25	192	1
XTP	25	192	3
HLD	26	0	2	192
XTP	26	192	3
TAP	27	0	4
TAP	27	96	4
XTP	27	192	3
XTP	27	192	4
HLD	28	0	5	192
XTP	28	192	4
TAP	29	0	3
TAP	29	96	3
XTP	29	192	3
XTP	29	192	4
HLD	30	0	2	192
XTP	30	192	3
TAP	31	0	5
TAP	31	96	5
XTP	31	192	4
XTP	31	192	5
TAP	32	0	6
TAP	32	96	6
TAP	32	192	6
TAP	33	0	7
TAP	33	96	7
XTP	33	192	1
XTP	33	192	6
STR	34	0	0
SCR	34	0	0	96	384	4
XTP	35	192	5
STR	36	0	6
SCL	36	0	6	96	384	2
XTP	37	192	1
STR	38	0	0
SCR	38	0	0	96	240	3
STR	39	0	4
SCR	39	0	4	96	240	7
HLD	40	0	0	288
XTP	40	288	7
XTP	41	0	1
XTP	41	0	6
XTP	41	192	0
XTP	41	288	0
TAP	42	0	6
XTP	42	96	6
XTP	42	96	7
TAP	42	192	6
XTP	42	288	6
XTP	42	288	7
TAP	43	0	0
TAP	43	96	0
XTP	43	192	1
XTP	43	192	7
TAP	44	0	2
TAP	44	96	2
TAP	44	192	3
TAP	44	288	3
TAP	45	0	4
TAP	45	96	5
XTP	45	192	4
XTP	45	192	6
HLD	46	0	5	192
HLD	46	192	4	192
HLD	47	0	3	192
XTP	47	192	2
TAP	48	0	1
TAP	48	96	1
TAP	48	192	0
TAP	48	288	0
XTP	49	0	1
XTP	49	0	6
XTP	49	192	7
XTP	49	288	7
TAP	50	0	1
XTP	50	96	0
XTP	50	96	1
TAP	50	192	1
XTP	50	288	0
XTP	50	288	1
TAP	51	0	7
TAP	51	96	7
XTP	51	192	0
XTP	51	192	6
TAP	52	0	5
TAP	52	96	5
TAP	52	192	4
TAP	52	288	4
TAP	53	0	3
TAP	53	96	2
XTP	53	192	1
XTP	53	192	3
HLD	54	0	2	192
HLD	54	192	3	192
HLD	55	0	4	192
XTP	55	192	5
TAP	56	0	6
TAP	56	96	6
TAP	56	192	7
TAP	56	288	7
TAP	57	0	0
TAP	57	96	0
TAP	57	192	1
TAP	57	288	1
XTP	58	0	0
XTP	58	0	7
XTP	58	96	0
XTP	58	96	7
XTP	58	192	1
XTP	58	192	6
XTP	58	288	1
XTP	58	288	6
XTP	59	0	2
XTP	59	0	5
XTP	59	96	2
XTP	59	96	5
BRK	59	192	2
BRK	59	192	5
HLD	60	0	3	768
HLD	60	0	4	384
XTP	62	0	4
XTP	62	192	4
XTP	63	0	4
XTP	63	96	4
TAP	63	192	2
TAP	63	192	5
TTP	64	0	6	B	0	L1
TTP	64	192	4	B	0	L1
TTP	65	0	2	B	0	L1
TTP	66	0	1	B	0	L1
TTP	66	192	3	B	0	L1
TTP	67	0	5	B	0	L1
TTP	68	0	4	E	0	L1
TTP	68	192	3	E	0	L1
TTP	69	0	2	E	0	L1
TTP	69	192	1	E	0	L1
TTP	70	0	0	E	0	L1
TTP	70	192	7	E	0	L1
THO	71	0	0	384	C	1	L1
HLD	74	0	2	768
HLD	76	0	3	768
HLD	78	0	4	768
XTP	80	0	5
XTP	80	192	5
TAP	81	0	3
TAP	81	0	4
TAP	81	96	3
TAP	81	96	4
XTP	81	192	2
XTP	81	192	5
TAP	82	0	2
TAP	82	96	2
TAP	82	192	2
TAP	82	288	2
TAP	83	0	3
TAP	83	96	3
TAP	83	192	3
TAP	83	288	3
TAP	84	0	4
TAP	84	96	4
TAP	84	192	4
TAP	84	288	4
TAP	85	0	5
TAP	85	96	5
TAP	85	192	5
TAP	85	288	5
TAP	86	0	4
TAP	86	96	4
TAP	86	192	3
TAP	86	288	3
TAP	87	0	2
TAP	87	96	2
TAP	87	192	1
TAP	87	288	1
XTP	88	0	0
XTP	88	0	7
XTP	88	96	0
XTP	88	96	7
XTP	88	192	1
XTP	88	192	6
XTP	88	288	1
XTP	88	288	6
XHO	89	0	2	384
XHO	89	0	5	384
XTP	91	192	0
XTP	91	288	0
XTP	92	0	0
BRK	92	96	1
BRK	92	96	6
TAP	92	192	7
TAP	92	288	0
TAP	93	0	1
TAP	93	96	0
TAP	93	96	1
XTP	93	192	2
XTP	93	192	7
TAP	94	0	2
TAP	94	96	3
TAP	94	192	4
TAP	94	288	5
XTP	95	0	4
XTP	95	0	5
XTP	95	96	4
XTP	95	96	5
XTP	95	192	3
XTP	95	192	6
STR	96	0	5
SCL	96	0	5	96	240	2
STR	97	0	1
SCR	97	0	1	96	240	4
XTP	98	0	5
TAP	98	192	6
TAP	98	192	7
TAP	98	288	6
TAP	98	288	7
XTP	99	0	0
XTP	99	0	5
XTP	99	192	7
XTP	99	288	7
TAP	100	0	6
TAP	100	96	6
TAP	100	96	7
TAP	100	192	1
TAP	100	288	0
TAP	100	288	1
TAP	101	0	6
TAP	101	96	6
TAP	101	96	7
XTP	101	192	0
XTP	101	192	5
TAP	102	0	5
TAP	102	96	4
TAP	102	192	3
TAP	102	288	2
XTP	103	0	2
XTP	103	0	3
XTP	103	96	2
XTP	103	96	3
XTP	103	192	1
XTP	103	192	4
STR	104	0	2
SCR	104	0	2	96	240	5
STR	105	0	6
SCL	105	0	6	96	240	3
XTP	106	0	2
XTP	106	96	2
XTP	106	192	0
XTP	106	192	1
XTP	106	288	0
XTP	106	288	1
TAP	107	0	7
TAP	107	96	7
XTP	107	192	0
XTP	107	192	6
XTP	107	288	0
XTP	107	288	6
TAP	108	0	5
TAP	108	96	5
XTP	108	192	6
XTP	108	192	7
XTP	108	288	6
XTP	108	288	7
TAP	109	0	0
TAP	109	96	0
XTP	109	192	1
XTP	109	192	6
XTP	109	288	1
XTP	109	288	6
TAP	110	0	0
TAP	110	96	0
XTP	110	192	0
XTP	110	192	1
XTP	110	288	0
XTP	110	288	1
TAP	111	0	2
TAP	111	96	2
XTP	111	192	3
XTP	111	192	4
XTP	111	288	3
XTP	111	288	4
TAP	112	0	5
TAP	112	96	5
XTP	112	192	6
XTP	112	192	7
XTP	112	288	6
XTP	112	288	7
TAP	113	0	0
TAP	113	96	0
TAP	113	192	0
TAP	113	192	7
BST	113	288	0
SUR	113	288	0	96	480	4
BST	113	288	7
SUL	113	288	7	96	480	3
TTP	115	288	0	C	1	L1

T_REC_TAP	154
T_REC_BRK	6
T_REC_XTP	142
T_REC_HLD	21
T_REC_XHO	2
T_REC_STR	8
T_REC_BST	2
T_REC_XST	0
T_REC_TTP	13
T_REC_THO	1
T_REC_SLD	10
T_REC_ALL	359
T_NUM_TAP	317
T_NUM_BRK	8
T_NUM_HLD	24
T_NUM_SLD	10
T_NUM_ALL	359
T_JUDGE_TAP	325
T_JUDGE_HLD	204
T_JUDGE_SLD	10
T_JUDGE_ALL	539
TTM_EACHPAIRS	74
TTM_SCR_TAP	158500
TTM_SCR_BRK	20800
TTM_SCR_HLD	24000
TTM_SCR_SLD	15000
TTM_SCR_ALL	218300
TTM_SCR_S	211000
TTM_SCR_SS	217500
TTM_RAT_ACV	10036

