VERSION	0.00.00	1.03.00
FES_MODE	0
BPM_DEF	192.000	192.000	192.000	192.000
MET_DEF	4	4
RESOLUTION	384
CLK_DEF	384
COMPATIBLE_CODE	MA2

BPM	0	0	192.000
MET	0	0	4	4

TAP	10	0	0
TAP	11	0	0
HLD	12	0	0	384
TAP	14	0	7
TAP	15	0	7
HLD	16	0	7	384
TAP	18	0	0
TAP	19	0	0
TAP	20	0	1
TAP	21	0	1
TAP	22	0	2
TAP	23	0	2
TAP	24	0	3
TAP	25	0	3
TAP	25	0	4
HLD	26	0	4	384
HLD	28	0	3	384
TAP	30	0	4
TAP	31	0	3
TAP	32	0	4
XTP	33	0	3
XTP	33	0	4
TTP	34	0	5	B	0	L1
TTP	35	0	6	B	0	L1
TTP	36	0	7	B	0	L1
TTP	37	0	0	B	0	L1
TTP	38	0	1	B	0	L1
TTP	39	0	2	B	0	L1
THO	40	0	0	384	C	1	L1
TAP	42	0	7
TAP	42	192	7
TAP	43	0	7
TAP	44	0	6
TAP	44	192	6
TAP	45	0	6
STR	46	0	5
SI_	46	0	5	96	288	2
TAP	48	0	1
TAP	48	192	1
XTP	49	0	0
XTP	49	0	1
TAP	50	0	0
TAP	50	192	0
TAP	51	0	0
TAP	52	0	1
TAP	52	192	1
TAP	53	0	1
STR	54	0	2
SI_	54	0	2	96	288	5
TAP	56	0	6
TAP	56	192	6
TAP	57	0	7
TAP	57	192	7
TAP	58	0	0
TAP	58	192	0
BRK	59	0	0
BRK	59	0	7
STR	60	0	0
SI_	60	0	0	96	288	3
STR	62	0	7
SI_	62	0	7	96	288	4
TAP	64	0	3
TAP	65	0	2
TAP	66	0	1
TAP	67	0	0
TAP	67	0	7
TAP	68	0	7
TAP	69	0	6
TAP	70	0	5
TAP	71	0	3
TAP	71	0	4
HLD	72	0	2	384
HLD	72	0	5	384
TTP	74	0	3	B	0	L1
TTP	76	0	4	B	0	L1
TTP	78	0	3	B	0	L1
TTP	78	0	4	B	0	L1
THO	80	0	0	336	C	1	L1
TAP	82	0	7
TAP	82	192	7
TAP	83	0	7
TAP	83	96	7
TAP	83	192	7
TAP	84	0	0
TAP	84	192	0
TAP	85	0	0
TAP	85	96	0
TAP	85	192	0
STR	86	0	7
SI_	86	0	7	96	288	3
TAP	88	0	2
TAP	88	96	2
TAP	88	192	2
XHO	89	0	2	192
XHO	89	0	3	192
TAP	90	0	1
TAP	90	96	1
TAP	90	192	1
XTP	91	0	0
XTP	91	0	7
TAP	92	0	0
TAP	92	192	0
TAP	93	0	1
TAP	93	96	1
TAP	93	192	1
TAP	94	0	2
TAP	94	192	2
TAP	95	0	3
TAP	95	96	3
TAP	95	192	3
STR	96	0	4
SI_	96	0	4	96	288	7
TAP	98	0	0
TAP	98	96	0
TAP	98	192	0
XHO	99	0	0	192
XHO	99	0	7	192
TAP	100	0	7
TAP	100	96	7
TAP	100	192	7
TAP	101	0	6
TAP	101	96	6
TAP	101	192	6
TAP	102	0	5
TAP	102	192	5
TAP	103	0	4
TAP	103	96	4
TAP	103	192	3
TAP	103	192	4
STR	104	0	3
SI_	104	0	3	96	288	0
TAP	106	0	7
TAP	106	96	7
TAP	106	192	7
TAP	107	0	6
TAP	107	96	6
XTP	107	192	6
XTP	107	192	7
TAP	108	0	0
TAP	108	96	0
TAP	108	192	0
TAP	109	0	1
TAP	109	96	1
XTP	109	192	0
XTP	109	192	1
TAP	110	0	7
TAP	110	96	7
XTP	110	192	6
XTP	110	192	7
TAP	111	0	0
TAP	111	96	0
XTP	111	192	0
XTP	111	192	1
TAP	112	0	7
TAP	112	96	7
TAP	112	192	0
TAP	112	288	0
TAP	113	0	7
TAP	113	96	7
XTP	113	192	0
XTP	113	192	7
XHO	113	288	0	768
XHO	113	288	7	768

T_REC_TAP	107
T_REC_BRK	2
T_REC_XTP	16
T_REC_HLD	6
T_REC_XHO	6
T_REC_STR	7
T_REC_BST	0
T_REC_XST	0
T_REC_TTP	10
T_REC_THO	2
T_REC_SLD	7
T_REC_ALL	163
T_NUM_TAP	140
T_NUM_BRK	2
T_NUM_HLD	14
T_NUM_SLD	7
T_NUM_ALL	163
T_JUDGE_TAP	142
T_JUDGE_HLD	111
T_JUDGE_SLD	7
T_JUDGE_ALL	260
TTM_EACHPAIRS	17
TTM_SCR_TAP	70000
TTM_SCR_BRK	5200
TTM_SCR_HLD	14000
TTM_SCR_SLD	10500
TTM_SCR_ALL	99700
TTM_SCR_S	96550
TTM_SCR_SS	99500
TTM_RAT_ACV	10020

