VERSION	0.00.00	1.03.00
FES_MODE	0
BPM_DEF	174.000	174.000	174.000	174.000
MET_DEF	4	4
RESOLUTION	384
CLK_DEF	384
COMPATIBLE_CODE	MA2

BPM	0	0	174.000
MET	0	0	4	4

STR	1	0	6
SCL	1	0	6	96	48	4
TAP	1	96	2
TAP	1	144	2
STR	1	192	2
SI_	1	192	2	96	48	5
TAP	1	288	5
STR	2	0	6
SCL	2	0	6	96	48	4
TAP	2	96	2
TAP	2	144	2
STR	2	192	2
SI_	2	192	2	96	48	5
TAP	2	288	5
STR	3	0	6
SCL	3	0	6	96	48	4
TAP	3	96	2
TAP	3	144	2
STR	3	192	2
SI_	3	192	2	96	48	5
TAP	3	288	5
STR	4	0	6
SCL	4	0	6	96	48	4
TAP	4	96	2
TAP	4	144	2
TAP	4	192	2
TAP	4	240	2
TAP	4	240	5
TAP	4	288	3
TAP	4	312	4
TAP	4	336	3
TAP	4	360	4
BRK	5	0	1
TAP	5	48	0
TAP	5	96	7
TAP	5	144	6
HLD	5	192	5	48
HLD	5	288	3	48
HLD	6	0	4	48
HLD	6	0	6	48
TAP	6	96	1
STR	6	96	7
SI_	6	96	7	96	48	3
TAP	6	144	1
TAP	6	288	0
TAP	6	288	6
HLD	7	0	3	48
HLD	7	0	5	48
TAP	7	96	1
STR	7	96	7
SI_	7	96	7	96	48	3
TAP	7	144	1
TAP	7	288	0
TAP	7	288	6
TAP	8	0	2
TAP	8	0	4
TAP	8	48	1
TAP	8	96	1
TAP	8	144	4
TAP	8	168	3
TAP	8	192	4
XTP	8	240	1
XTP	8	240	6
XTP	8	288	0
XTP	8	312	1
XTP	8	336	2
XTP	8	360	3
XTP	9	0	6
TAP	9	48	6
TAP	9	96	3
TAP	9	144	3
TAP	9	192	4
TAP	9	240	4
TAP	9	288	2
TAP	9	336	2
TAP	10	48	4
TAP	10	48	5
HLD	10	96	4	96
TAP	10	96	5
TTP	10	192	0	B	0	M1
TTP	10	192	7	B	0	M1
TAP	10	288	3
TAP	10	336	2
TAP	11	48	2
TAP	11	48	3
TAP	11	96	2
HLD	11	96	3	96
TTP	11	192	0	B	0	M1
TTP	11	192	7	B	0	M1
TAP	11	288	4
TAP	11	336	5
TAP	12	48	4
TAP	12	48	5
HLD	12	96	4	96
TAP	12	96	5
TTP	12	192	0	B	0	M1
TTP	12	192	7	B	0	M1
TAP	12	288	3
TAP	13	0	2
TAP	13	48	4
TAP	13	72	3
TAP	13	96	4
TAP	13	144	2
TAP	13	192	1
TAP	13	240	0
TAP	13	288	7
TAP	13	336	2
STR	13	336	6
SV_	13	336	6	96	48	4
TAP	14	48	1
STR	14	96	1
SI_	14	96	1	96	48	5
STR	14	192	6
SI_	14	192	6	96	48	2
TAP	14	288	3
TAP	14	336	3
TAP	15	48	4
TAP	15	48	5
HLD	15	96	4	96
TAP	15	96	5
TTP	15	192	0	B	0	M1
TTP	15	192	7	B	0	M1
TAP	15	288	3
TAP	15	336	2
TAP	16	48	2
TAP	16	48	3
TAP	16	96	2
HLD	16	96	3	96
TTP	16	192	0	B	0	M1
TTP	16	192	7	B	0	M1
TAP	16	288	4
XTP	17	0	1
TAP	17	48	2
TAP	17	96	3
TAP	17	144	4
TAP	17	192	5
TAP	17	240	6
TAP	17	288	3
TAP	17	288	7
HLD	17	336	3	144
TAP	17	336	7
TAP	18	48	0
STR	18	96	0
SI_	18	96	0	96	48	4
STR	18	192	3
SI_	18	192	3	96	48	7
TAP	18	288	5
TAP	18	336	5
TAP	19	48	4
TAP	19	48	5
HLD	19	96	4	96
TAP	19	96	5
TTP	19	192	0	B	0	M1
TTP	19	192	7	B	0	M1
TAP	19	288	3
TAP	19	336	2
TAP	20	48	2
TAP	20	48	3
TAP	20	96	2
HLD	20	96	3	96
TTP	20	192	0	B	0	M1
TTP	20	192	7	B	0	M1
TAP	20	288	4
TAP	21	0	5
TAP	21	48	3
TAP	21	72	4
TAP	21	96	3
TAP	21	144	5
TAP	21	192	6
TAP	21	240	7
TAP	21	288	0
STR	21	336	1
SCR	21	336	1	96	48	5
TAP	21	336	5
TAP	22	48	6
STR	22	96	6
SI_	22	96	6	96	48	2
STR	22	192	1
SI_	22	192	1	96	48	5
TAP	22	288	4
TAP	22	336	4
TAP	23	48	6
TAP	23	96	5
TAP	23	144	4
TAP	23	192	3
TAP	23	240	2
TAP	23	288	1
STR	23	336	0
SCR	23	336	0	96	144	6
XTP	24	48	7
XTP	24	96	7
XTP	24	144	7
XST	24	192	7
SI_	24	192	7	96	48	3
STR	25	0	2
SI_	25	0	2	96	48	0
TAP	25	0	6
TAP	25	96	3
STR	25	192	2
SI_	25	192	2	96	48	7
TAP	25	192	6
TAP	25	288	3
STR	25	336	3
SCR	25	336	3	96	96	7
TAP	26	48	2
TAP	26	144	3
STR	26	240	4
SI_	26	240	4	96	48	1
TAP	26	240	7
TAP	26	336	0
TAP	27	48	7
TAP	27	96	3
TAP	27	144	6
TAP	27	192	2
TAP	27	240	5
TAP	27	288	1
TAP	27	336	4
TAP	28	0	0
TAP	28	48	0
STR	28	96	1
SUR	28	96	1	96	96	5
STR	28	96	5
SUR	28	96	5	96	96	1
TAP	29	0	2
HLD	29	0	3	576
HLD	29	96	1	48
HLD	29	192	0	48
HLD	29	288	7	48
HLD	30	0	6	48
HLD	30	96	5	48
TAP	30	192	4
STR	30	288	2
SI_	30	288	2	96	48	5
STR	30	288	5
SCL	30	288	5	96	48	2
TAP	31	96	0
TAP	31	96	7
TAP	31	144	1
STR	31	144	6
SI_	31	144	6	96	48	3
STR	31	240	0
SCR	31	240	0	96	96	4
STR	31	336	4
SCR	31	336	4	96	72	7
XTP	32	48	0
XST	32	96	0
SF_	32	96	0	96	48	4
TAP	32	336	2
TAP	32	336	4
STR	33	0	2
SI_	33	0	2	96	48	7
HLD	33	0	4	48
TAP	33	96	6
TAP	33	144	5
STR	33	192	2
SI_	33	192	2	96	48	7
HLD	33	192	4	48
TAP	33	288	6
STR	33	336	5
SCR	33	336	5	96	96	2
SUR	33	336	5	96	96	2
TAP	34	240	3
TAP	34	288	4
TAP	34	336	5
TAP	35	0	0
TAP	35	0	6
TAP	35	48	5
TAP	35	96	1
TAP	35	96	6
TAP	35	144	5
TAP	35	192	2
TAP	35	192	6
TAP	35	288	3
TAP	35	288	5
TAP	35	336	3
STR	35	336	5
SCR	35	336	5	96	96	0
TAP	36	48	3
TAP	36	96	3
TAP	36	144	2
TAP	36	192	2
XTP	36	240	0
XTP	36	240	1
XTP	36	288	0
XTP	36	288	1
HLD	37	0	3	48
STR	37	0	5
SI_	37	0	5	96	48	0
TAP	37	96	1
TAP	37	144	2
HLD	37	192	3	48
STR	37	192	5
SI_	37	192	5	96	48	0
TAP	37	288	1
STR	37	336	2
SCL	37	336	2	96	96	5
SUL	37	336	2	96	96	5
TAP	38	240	4
TAP	38	288	3
TAP	38	336	2
HLD	39	0	1	48
HLD	39	48	2	48
HLD	39	96	3	48
HLD	39	144	4	48
TAP	39	192	5
TAP	39	288	3
TAP	39	288	4
BRK	39	336	1
BRK	39	336	6
TAP	40	48	5
TAP	40	72	4
TAP	40	96	5
TAP	40	144	2
TAP	40	168	3
TAP	40	192	2
TAP	40	240	3
TAP	40	240	4
XTP	40	288	3
XTP	40	288	4
BRK	41	0	1
STR	41	48	0
SI_	41	48	0	96	48	5
TAP	41	96	1
XTP	41	144	0
TAP	41	192	1
STR	41	240	3
SI_	41	240	3	96	48	6
TAP	41	288	1
XTP	41	336	3
TAP	42	0	1
STR	42	48	7
SI_	42	48	7	96	48	3
TAP	42	96	1
XTP	42	144	7
TAP	42	192	1
STR	42	240	4
SI_	42	240	4	96	48	0
TAP	42	288	1
XTP	42	336	4
TAP	43	0	1
TAP	43	48	6
TAP	43	48	7
TAP	43	96	5
TAP	43	144	3
TAP	43	144	4
TAP	43	192	2
TAP	43	240	0
TAP	43	240	1
TAP	43	288	7
STR	43	336	5
SCL	43	336	5	96	96	0
TAP	43	336	6
TAP	44	48	7
STR	44	96	7
SXL	44	96	7	96	96	7
SXR	44	96	7	96	96	7
TAP	44	336	6
TAP	44	336	7
TAP	45	0	6
STR	45	48	7
SI_	45	48	7	96	48	2
TAP	45	96	6
XTP	45	144	7
TAP	45	192	6
STR	45	240	4
SI_	45	240	4	96	48	1
TAP	45	288	6
XTP	45	336	4
TAP	46	0	6
STR	46	48	0
SI_	46	48	0	96	48	4
TAP	46	96	6
XTP	46	144	0
STR	46	192	6
SCL	46	192	6	96	48	2
TAP	46	288	1
STR	46	336	1
SXL	46	336	1	96	96	2
SXR	46	336	1	96	96	0
TAP	47	192	0
TAP	47	192	2
TAP	47	240	1
TAP	47	288	0
TAP	47	288	2
STR	47	336	6
SXL	47	336	6	96	96	7
SXR	47	336	6	96	96	5
TAP	48	192	5
TAP	48	192	7
TAP	48	240	6
TAP	48	288	5
TAP	48	288	7
HLD	48	336	1	336
TAP	49	48	2
TAP	49	96	3
TAP	49	144	4
BRK	49	192	5
BRK	49	240	6
BRK	49	288	7
TAP	49	336	0
TAP	49	336	1
TAP	50	48	5
TAP	50	48	6
STR	50	96	5
SI_	50	96	5	96	48	1
STR	50	96	6
SI_	50	96	6	96	48	2
TAP	51	0	1
HLD	51	0	4	1344
HLD	51	96	2	64
HLD	51	192	1	64
HLD	51	288	2	64
HLD	52	0	1	64
HLD	52	96	2	64
HLD	52	192	1	64
HLD	52	288	2	64
HLD	53	0	1	64
HLD	53	96	0	64
HLD	53	192	7	64
HLD	53	288	0	64
HLD	54	0	1	64
HLD	54	96	2	64
TAP	54	192	3
TTP	54	288	0	C	0	M1
HLD	55	0	3	1344
TAP	55	0	6
HLD	55	96	5	64
HLD	55	192	6	64
HLD	55	288	5	64
HLD	56	0	6	64
HLD	56	96	5	64
HLD	56	192	6	64
HLD	56	288	5	64
HLD	57	0	6	64
HLD	57	96	7	64
HLD	57	192	0	64
HLD	57	288	7	64
HLD	58	0	6	64
HLD	58	96	5	64
TAP	58	192	4
TTP	58	288	0	C	0	M1
BRK	59	0	2
BRK	59	0	3
TAP	59	96	6
TAP	59	96	7
TAP	59	144	6
STR	59	192	3
SI_	59	192	3	96	48	7
TAP	59	192	4
TAP	59	288	6
STR	59	336	6
SCL	59	336	6	96	48	3
TAP	60	48	7
TAP	60	96	0
TAP	60	144	1
TAP	60	192	2
TAP	60	240	3
TAP	60	288	4
TAP	60	336	5
TAP	61	0	6
TAP	61	48	3
TAP	61	72	4
TAP	61	96	3
TAP	61	144	1
HLD	61	144	6	48
TAP	61	240	0
TAP	61	264	7
TAP	61	288	0
HLD	61	336	2	48
TAP	61	336	5
TAP	62	48	4
TAP	62	72	3
TAP	62	96	4
TAP	62	144	2
TAP	62	168	3
TAP	62	192	2
XTP	62	240	0
XTP	62	240	1
XTP	62	288	0
XTP	62	288	1
TAP	63	0	3
TAP	63	0	6
TAP	63	48	4
TAP	63	48	5
TAP	63	96	3
TAP	63	120	4
TAP	63	144	3
STR	63	192	1
SI_	63	192	1	96	48	4
TAP	63	240	0
TAP	63	288	7
TAP	63	336	6
TAP	64	0	5
TAP	64	48	4
TAP	64	96	3
TAP	64	144	2
STR	64	192	0
SI_	64	192	0	96	48	5
STR	64	192	1
SI_	64	192	1	96	48	4
XTP	65	0	4
TAP	65	24	5
TAP	65	48	4
TAP	65	72	5
XTP	65	96	3
TAP	65	120	5
TAP	65	144	3
TAP	65	168	5
XTP	65	192	2
TAP	65	216	5
TAP	65	240	2
TAP	65	264	5
XTP	65	288	1
TAP	65	312	5
TAP	65	336	1
TAP	65	360	5
XTP	66	0	0
TAP	66	24	1
TAP	66	48	2
TAP	66	72	3
XTP	66	96	7
TAP	66	120	6
TAP	66	144	5
TAP	66	168	4
XST	66	192	0
SCL	66	192	0	96	96	3
TAP	66	216	1
TAP	66	240	2
TAP	66	264	3
BRK	66	288	0
TTP	67	0	0	C	0	M1
TTP	67	96	5	B	0	M1
TTP	67	96	6	B	0	M1
TTP	67	192	1	B	0	M1
TTP	67	192	2	B	0	M1
TTP	67	288	0	B	0	M1
TTP	67	288	7	B	0	M1
TAP	68	0	3
TAP	68	48	3
TAP	68	96	3
TAP	68	144	3
TAP	68	192	3
TAP	68	192	4
TAP	68	336	2
TAP	68	336	4
STR	69	0	2
SI_	69	0	2	96	48	7
HLD	69	0	4	48
TAP	69	96	6
TAP	69	144	5
STR	69	192	2
SI_	69	192	2	96	48	7
HLD	69	192	4	48
TAP	69	288	6
STR	69	336	5
SCR	69	336	5	96	96	2
SUR	69	336	5	96	96	2
TAP	70	240	3
TAP	70	288	4
TAP	70	336	5
STR	71	0	6
SI_	71	0	6	96	48	3
TAP	71	48	2
TAP	71	96	6
TAP	71	144	2
STR	71	192	6
SI_	71	192	6	96	48	4
TAP	71	240	0
TAP	71	288	6
STR	71	336	0
SCR	71	336	0	96	96	4
TAP	72	48	4
TAP	72	96	5
TAP	72	144	6
TAP	72	192	7
XTP	72	240	0
XTP	72	240	1
XTP	72	288	0
XTP	72	288	1
HLD	73	0	3	48
STR	73	0	5
SI_	73	0	5	96	48	0
TAP	73	96	1
TAP	73	144	2
HLD	73	192	3	48
STR	73	192	5
SI_	73	192	5	96	48	0
TAP	73	288	1
STR	73	336	2
SCL	73	336	2	96	96	5
SUL	73	336	2	96	96	5
TAP	74	240	4
TAP	74	288	3
TAP	74	336	2
HLD	75	0	1	48
HLD	75	48	2	48
HLD	75	96	3	48
HLD	75	144	4	48
TAP	75	192	5
TAP	75	288	3
TAP	75	288	4
TAP	75	336	1
TAP	75	336	6
TAP	76	48	2
TAP	76	72	3
TAP	76	96	2
TAP	76	144	1
TAP	76	144	4
BRK	76	192	0
XTP	76	204	1
XTP	76	216	2
XTP	76	228	3
XTP	76	240	4
XTP	76	252	5
XTP	76	264	6
XTP	76	276	7
XTP	76	288	0
XST	77	0	7
SI_	77	0	7	96	48	3
TAP	77	48	0
TAP	77	96	7
TAP	77	144	0
STR	77	192	7
SI_	77	192	7	96	48	4
TAP	77	240	1
TAP	77	288	7
TAP	77	336	1
STR	78	0	7
SI_	78	0	7	96	48	5
TAP	78	48	2
TAP	78	96	7
TAP	78	144	2
STR	78	192	7
SI_	78	192	7	96	48	4
TAP	78	240	3
TAP	78	288	7
TAP	78	336	3
HLD	79	0	2	96
TAP	79	48	3
HLD	79	96	4	96
TAP	79	144	3
HLD	79	192	1	96
TAP	79	240	3
HLD	79	288	5	96
TAP	79	336	3
TAP	80	0	1
TAP	80	48	2
TAP	80	96	3
TAP	80	144	4
TAP	80	192	5
XTP	80	240	6
XTP	80	240	7
XTP	80	288	6
XTP	80	288	7
XST	81	0	0
SI_	81	0	0	96	48	4
TAP	81	48	7
TAP	81	96	0
TAP	81	144	7
STR	81	192	0
SI_	81	192	0	96	48	3
TAP	81	240	6
TAP	81	288	0
TAP	81	336	6
STR	82	0	0
SI_	82	0	0	96	48	2
TAP	82	48	5
TAP	82	96	0
TAP	82	144	5
STR	82	192	0
SI_	82	192	0	96	48	3
TAP	82	240	4
TAP	82	288	0
TAP	82	336	4
XTP	83	0	1
XTP	83	0	6
XTP	83	48	1
XTP	83	48	6
XTP	83	96	2
XTP	83	96	5
XTP	83	144	2
XTP	83	144	5
TAP	83	192	3
TAP	83	216	4
TAP	83	240	3
TAP	83	264	4
TAP	83	288	3
HLD	83	336	2	240
HLD	83	336	5	240
TAP	84	288	3
TAP	84	312	4
TAP	84	336	3
TAP	84	360	4
BRK	85	0	1
TAP	85	48	0
TAP	85	48	2
TAP	85	96	1
TAP	85	144	2
TAP	85	144	7
TAP	85	192	1
TAP	85	240	2
TAP	85	240	6
TAP	85	288	1
TAP	85	336	2
TAP	85	336	5
TAP	86	0	1
TAP	86	48	2
TAP	86	48	4
TAP	86	96	1
TAP	86	144	0
TAP	86	144	2
TAP	86	192	1
TAP	86	240	2
TAP	86	240	4
TAP	86	288	1
TAP	86	336	0
TAP	86	336	2
TAP	87	0	1
TAP	87	48	2
TAP	87	48	6
TAP	87	96	5
TAP	87	144	3
TAP	87	144	4
TAP	87	192	2
TAP	87	240	0
TAP	87	240	1
TAP	87	288	7
STR	87	336	5
SCL	87	336	5	96	96	1
TAP	87	336	6
TAP	88	48	7
TAP	88	96	6
TAP	88	144	5
TAP	88	192	0
TAP	88	216	7
TAP	88	240	0
TAP	88	264	7
TAP	88	288	0
TAP	88	336	2
TAP	88	336	5
BRK	89	0	6
TAP	89	48	5
TAP	89	48	7
TAP	89	96	6
TAP	89	144	0
TAP	89	144	5
TAP	89	192	6
TAP	89	240	1
TAP	89	240	5
TAP	89	288	6
TAP	89	336	2
TAP	89	336	5
TAP	90	0	6
TAP	90	48	3
TAP	90	48	5
TAP	90	96	6
TAP	90	144	5
TAP	90	144	7
TAP	90	192	6
TAP	90	240	3
TAP	90	240	5
TAP	90	288	6
TAP	90	336	5
STR	90	336	7
SLL	90	336	7	96	96	3
SLR	90	336	7	96	96	3
TAP	91	192	1
TAP	91	192	5
TAP	91	240	1
TAP	91	240	5
TAP	91	288	1
TAP	91	288	5
STR	91	336	0
SLL	91	336	0	96	96	4
SLR	91	336	0	96	96	4
TAP	92	192	2
TAP	92	192	6
TAP	92	240	2
TAP	92	240	6
TAP	92	288	2
TAP	92	288	6
HLD	92	336	3	336
TAP	92	336	4
TAP	93	48	2
TAP	93	96	1
TAP	93	144	0
BRK	93	192	7
BRK	93	240	6
BRK	93	288	5
TAP	93	336	3
TAP	93	336	4
TAP	94	48	2
TAP	94	48	5
STR	94	96	2
SUR	94	96	2	96	72	7
STR	94	96	5
SUL	94	96	5	96	72	0
HLD	94	336	1	240
TAP	94	336	6
TAP	95	48	3
STR	95	96	3
SI_	95	96	3	96	48	7
TAP	95	288	0
TAP	95	288	7
TAP	95	336	1
HLD	95	336	6	240
TAP	96	48	4
STR	96	96	4
SI_	96	96	4	96	48	0
TAP	96	288	0
TAP	96	288	7
HLD	96	336	1	240
TAP	96	336	6
TAP	97	48	3
TAP	97	96	4
TAP	97	144	5
XTP	97	192	7
XTP	97	216	6
XTP	97	240	5
XTP	97	264	4
XHO	97	288	3	384
XHO	97	288	7	384
TAP	98	336	1
TAP	98	336	5
TAP	99	48	3
TAP	99	48	7
TAP	99	96	3
STR	99	96	7
SF_	99	96	7	96	48	3

T_REC_TAP	473
T_REC_BRK	16
T_REC_XTP	63
T_REC_HLD	77
T_REC_XHO	2
T_REC_STR	78
T_REC_BST	0
T_REC_XST	5
T_REC_TTP	23
T_REC_THO	0
T_REC_SLD	92
T_REC_ALL	829
T_NUM_TAP	642
T_NUM_BRK	16
T_NUM_HLD	79
T_NUM_SLD	92
T_NUM_ALL	829
T_JUDGE_TAP	658
T_JUDGE_HLD	229
T_JUDGE_SLD	92
T_JUDGE_ALL	979
TTM_EACHPAIRS	133
TTM_SCR_TAP	321000
TTM_SCR_BRK	41600
TTM_SCR_HLD	79000
TTM_SCR_SLD	138000
TTM_SCR_ALL	579600
TTM_SCR_S	560700
TTM_SCR_SS	578000
TTM_RAT_ACV	10027

