VERSION	0.00.00	1.03.00
FES_MODE	0
BPM_DEF	174.000	174.000	174.000	174.000
MET_DEF	4	4
RESOLUTION	384
CLK_DEF	384
COMPATIBLE_CODE	MA2

BPM	0	0	174.000
MET	0	0	4	4

TAP	5	0	1
TAP	5	0	4
TAP	5	96	2
TAP	5	192	4
TAP	5	288	5
TAP	6	0	3
TAP	6	0	6
TAP	6	96	5
TAP	6	192	3
TAP	6	288	2
TAP	7	0	1
TAP	7	0	4
TAP	7	96	2
TAP	7	192	4
TAP	7	288	3
TAP	7	288	5
HLD	8	0	2	96
HLD	8	0	6	96
XTP	8	192	3
XTP	8	192	4
HLD	9	0	5	192
TAP	9	96	3
TAP	9	192	4
TAP	9	288	6
HLD	10	0	3	192
TAP	10	96	5
TAP	10	192	4
TAP	10	288	3
HLD	11	0	2	192
TAP	11	96	4
TAP	11	192	3
TAP	11	288	2
HLD	12	0	1	96
HLD	12	0	3	96
TAP	12	192	3
TAP	12	192	4
TAP	13	0	5
TAP	13	48	5
TAP	13	96	4
TAP	13	192	3
TAP	13	192	5
TAP	13	288	4
TAP	14	0	2
TAP	14	48	2
TAP	14	96	3
TAP	14	192	2
TAP	14	192	4
TAP	14	288	5
HLD	15	0	0	96
HLD	15	0	6	96
TAP	15	192	7
TAP	15	288	0
HLD	16	0	1	96
HLD	16	0	7	96
XTP	16	192	2
XTP	16	192	6
HLD	17	0	2	192
TAP	17	96	4
TAP	17	192	3
TAP	17	288	2
HLD	18	0	4	192
TAP	18	96	2
TAP	18	192	3
TAP	18	288	4
HLD	19	0	5	192
TAP	19	96	3
TAP	19	192	4
STR	19	288	6
SCL	19	288	6	96	144	2
XTP	20	192	0
XTP	20	288	0
TAP	21	0	2
TAP	21	48	2
TAP	21	96	3
TAP	21	192	1
TAP	21	192	4
TAP	21	288	2
TAP	22	0	5
TAP	22	48	5
TAP	22	96	4
TAP	22	192	3
TAP	22	192	6
TAP	22	288	5
HLD	23	0	2	96
TAP	23	96	3
HLD	23	192	6	96
TAP	23	288	4
TAP	24	0	1
TAP	24	48	1
TAP	24	96	0
XTP	24	192	2
XTP	24	192	7
HLD	25	0	2	192
TAP	25	0	5
TAP	25	96	5
HLD	25	192	3	192
TTP	26	0	3	E	0	M1
TTP	26	96	2	E	0	M1
TTP	26	192	1	E	0	M1
TTP	26	192	7	E	0	M1
TAP	27	0	2
HLD	27	0	5	192
TAP	27	96	2
HLD	27	192	4	192
TTP	28	0	5	E	0	M1
TTP	28	96	6	E	0	M1
TTP	28	192	1	E	0	M1
TTP	28	192	7	E	0	M1
HLD	29	0	3	96
HLD	29	0	5	96
HLD	29	192	2	96
HLD	29	192	4	96
HLD	30	0	1	96
HLD	30	0	3	96
TAP	30	192	1
HLD	30	192	3	96
TAP	30	288	2
TAP	31	0	1
TAP	31	0	4
TAP	31	96	2
TAP	31	144	2
TAP	31	240	3
TAP	31	240	4
TAP	31	336	4
TAP	31	336	5
TAP	32	48	6
TAP	32	96	6
TAP	32	192	3
TAP	32	192	4
TAP	32	336	1
BRK	33	0	1
BRK	33	0	7
TAP	33	96	3
HLD	33	96	5	96
HLD	33	192	1	240
TAP	33	288	3
STR	33	336	3
SCR	33	336	3	96	144	7
TAP	34	240	1
TAP	34	288	0
TAP	34	288	1
TAP	35	0	2
TAP	35	48	2
TAP	35	96	3
TAP	35	192	4
TAP	35	192	5
TAP	35	288	0
TAP	35	336	0
TAP	35	336	7
TAP	36	48	2
TAP	36	96	2
TAP	36	96	3
XTP	36	192	1
XTP	36	192	7
TAP	36	336	6
TAP	37	0	0
TAP	37	0	6
HLD	37	96	2	96
TAP	37	96	4
HLD	37	192	6	240
TAP	37	288	4
STR	37	336	4
SCL	37	336	4	96	144	0
TAP	38	240	6
TAP	38	288	6
TAP	38	288	7
TAP	39	0	5
TAP	39	48	5
TAP	39	96	4
TAP	39	192	2
TAP	39	192	3
TAP	39	288	0
TAP	39	336	0
TAP	39	336	7
TAP	40	48	5
TAP	40	96	4
TAP	40	96	5
XTP	40	192	3
XTP	40	192	4
XTP	40	336	0
XTP	40	336	7
TAP	41	48	1
TAP	41	48	6
TAP	41	96	1
TAP	41	96	6
TAP	41	192	2
TAP	41	192	3
TAP	41	288	6
TAP	41	336	4
HLD	41	336	6	144
TAP	42	48	7
TAP	42	96	7
XTP	42	192	0
XTP	42	192	5
XHO	42	336	1	384
TAP	43	48	0
TAP	43	96	0
TAP	43	192	2
TAP	43	288	0
TAP	43	336	0
TAP	44	48	3
TAP	44	48	4
TAP	44	96	3
TAP	44	96	4
XTP	44	192	1
XTP	44	192	5
XTP	44	336	0
XTP	44	336	7
TAP	45	48	1
TAP	45	48	6
TAP	45	96	1
TAP	45	96	6
TAP	45	192	4
TAP	45	192	5
TAP	45	288	1
HLD	45	336	1	144
TAP	45	336	3
TAP	46	48	0
TAP	46	96	0
XTP	46	192	2
XTP	46	192	7
XHO	46	336	6	144
TAP	47	48	4
TAP	47	96	4
TAP	47	192	5
TAP	47	288	1
XHO	47	336	1	144
TAP	48	48	3
TAP	48	96	3
TAP	48	192	2
TAP	48	288	5
XHO	48	336	5	144
TAP	49	48	4
TAP	49	96	4
TAP	49	192	3
TAP	49	192	6
TAP	49	288	2
TAP	49	288	7
TAP	49	336	2
STR	49	336	7
SI_	49	336	7	96	48	3
XTP	50	192	2
XTP	50	192	4
HLD	51	0	1	96
HLD	51	0	3	1152
HLD	51	192	1	96
HLD	52	0	2	96
HLD	52	192	2	96
HLD	53	0	4	96
HLD	53	192	4	96
THO	54	0	0	192	C	0	M1
HLD	55	0	0	96
HLD	55	0	6	1152
HLD	55	192	0	96
HLD	56	0	7	96
HLD	56	192	7	96
HLD	57	0	5	96
HLD	57	192	5	96
THO	58	0	0	192	C	0	M1
TAP	59	0	7
HLD	59	96	5	192
TAP	59	192	4
TAP	59	240	4
TAP	59	288	4
TAP	60	0	3
HLD	60	96	1	192
TAP	60	192	0
TAP	60	240	0
TAP	60	288	0
STR	61	0	7
SCL	61	0	7	96	96	4
STR	61	192	0
SCR	61	192	0	96	96	3
HLD	62	0	6	96
TAP	62	96	4
HLD	62	192	2	96
TAP	62	288	3
TAP	63	0	4
HLD	63	96	6	192
TAP	63	192	7
TAP	63	240	7
TAP	63	288	7
HLD	64	0	0	96
HLD	64	0	1	96
XTP	64	192	2
XTP	64	192	7
XTP	64	288	2
XTP	64	288	7
TAP	65	0	6
TAP	65	48	6
TAP	65	96	3
TAP	65	144	3
TAP	65	192	5
TAP	65	240	5
TAP	65	288	2
TAP	65	336	2
TAP	66	0	4
TAP	66	48	4
TAP	66	96	1
TAP	66	144	1
TAP	66	192	3
XTP	66	288	2
XTP	66	288	5
TTP	67	0	1	E	0	M1
TTP	67	96	7	E	0	M1
TTP	67	192	3	E	0	M1
TTP	67	288	5	E	0	M1
TTP	68	0	0	B	0	M1
TTP	68	0	1	B	0	M1
TTP	68	96	4	B	0	M1
TTP	68	96	5	B	0	M1
TTP	68	192	0	C	0	M1
TAP	68	336	6
BRK	69	0	0
TAP	69	0	6
TAP	69	96	4
HLD	69	96	5	96
HLD	69	192	2	240
TAP	69	288	0
STR	69	336	0
SCL	69	336	0	96	144	4
TAP	70	240	2
TAP	70	288	2
TAP	70	288	3
TAP	71	0	1
TAP	71	48	1
TAP	71	96	0
TAP	71	192	2
TAP	71	192	7
TAP	71	288	6
TAP	71	336	4
TAP	71	336	6
TAP	72	48	1
TAP	72	96	1
TAP	72	96	3
XTP	72	192	3
XTP	72	192	4
TAP	72	336	1
XTP	73	0	1
XTP	73	0	7
HLD	73	96	2	96
TAP	73	96	3
HLD	73	192	5	240
TAP	73	288	7
STR	73	336	7
SCR	73	336	7	96	144	3
TAP	74	240	5
TAP	74	288	4
TAP	74	288	5
TAP	75	0	6
TAP	75	48	6
TAP	75	96	7
TAP	75	192	0
TAP	75	192	5
TAP	75	288	1
TAP	75	288	3
TAP	75	336	1
TAP	75	336	3
TAP	76	48	4
TAP	76	48	5
TAP	76	96	4
TAP	76	96	5
BRK	76	192	1
BRK	76	192	6
TAP	76	336	2
TAP	77	0	2
XTP	77	0	4
TAP	77	96	0
HLD	77	96	1	96
HLD	77	192	6	240
TAP	77	288	4
STR	77	336	4
SCL	77	336	4	96	144	0
TAP	78	240	6
TAP	78	288	6
TAP	78	288	7
TAP	79	0	5
TAP	79	48	5
TAP	79	96	4
TAP	79	192	0
TAP	79	192	7
TAP	79	288	1
TAP	79	336	1
TAP	79	336	3
TAP	80	48	6
TAP	80	96	4
TAP	80	96	6
XTP	80	192	2
XTP	80	192	3
TAP	80	336	5
XTP	81	0	3
TAP	81	0	5
HLD	81	96	6	96
TAP	81	96	7
HLD	81	192	1	240
TAP	81	288	3
STR	81	336	3
SCR	81	336	3	96	144	7
TAP	82	240	1
XTP	82	288	0
XHO	82	288	1	96
XHO	83	0	2	96
XHO	83	96	3	96
XTP	83	192	4
XTP	83	288	3
XTP	83	288	4
XHO	83	336	3	240
XHO	83	336	4	240
XTP	84	336	0
XTP	84	336	1
TAP	85	48	2
TAP	85	48	7
TAP	85	96	2
TAP	85	96	7
TAP	85	192	4
TAP	85	192	5
TAP	85	288	2
HLD	85	336	1	144
TAP	85	336	3
TAP	86	48	0
TAP	86	96	0
XTP	86	192	2
XTP	86	192	7
XHO	86	336	6	384
TAP	87	48	7
TAP	87	96	7
TAP	87	192	5
TAP	87	288	7
TAP	87	336	7
TAP	88	48	4
TAP	88	48	5
TAP	88	96	4
TAP	88	96	5
XTP	88	192	1
XTP	88	192	6
XTP	88	336	6
XTP	88	336	7
TAP	89	48	0
TAP	89	48	5
TAP	89	96	0
TAP	89	96	5
TAP	89	192	2
TAP	89	192	3
TAP	89	288	5
TAP	89	336	4
HLD	89	336	6	144
TAP	90	48	7
TAP	90	96	7
XTP	90	192	0
XTP	90	192	5
XHO	90	336	1	144
TAP	91	48	2
TAP	91	96	2
TAP	91	192	3
TAP	91	192	4
TAP	91	288	6
XHO	91	336	6	144
TAP	92	48	7
TAP	92	96	7
TAP	92	192	0
TAP	92	192	5
TAP	92	288	2
XHO	92	336	2	144
TAP	93	48	0
TAP	93	96	0
TAP	93	192	1
TAP	93	192	7
TAP	93	288	0
TAP	93	288	6
STR	93	336	0
SI_	93	336	0	96	48	4
TAP	93	336	6
BRK	94	192	3
BRK	94	192	5
XTP	94	336	0
XTP	94	336	7
TAP	95	48	1
TAP	95	48	6
HLD	95	96	1	96
TAP	95	96	6
HLD	95	192	2	144
TAP	95	288	3
XTP	95	336	3
TAP	96	48	4
HLD	96	96	4	96
HLD	96	192	5	144
TAP	96	288	6
XTP	96	336	6
TAP	97	48	7
HLD	97	96	7	96
STR	97	192	0
SI_	97	192	0	96	48	4
BRK	97	288	7
HLD	98	336	2	96
HLD	98	336	5	96
STR	99	96	2
SI_	99	96	2	96	48	4
STR	99	96	5
SI_	99	96	5	96	48	3

T_REC_TAP	304
T_REC_BRK	8
T_REC_XTP	56
T_REC_HLD	71
T_REC_XHO	13
T_REC_STR	14
T_REC_BST	0
T_REC_XST	0
T_REC_TTP	17
T_REC_THO	2
T_REC_SLD	14
T_REC_ALL	499
T_NUM_TAP	391
T_NUM_BRK	8
T_NUM_HLD	86
T_NUM_SLD	14
T_NUM_ALL	499
T_JUDGE_TAP	399
T_JUDGE_HLD	294
T_JUDGE_SLD	14
T_JUDGE_ALL	707
TTM_EACHPAIRS	119
TTM_SCR_TAP	195500
TTM_SCR_BRK	20800
TTM_SCR_HLD	86000
TTM_SCR_SLD	21000
TTM_SCR_ALL	323300
TTM_SCR_S	312850
TTM_SCR_SS	322500
TTM_RAT_ACV	10024

