VERSION	0.00.00	1.03.00
FES_MODE	0
BPM_DEF	174.000	174.000	174.000	174.000
MET_DEF	4	4
RESOLUTION	384
CLK_DEF	384
COMPATIBLE_CODE	MA2

BPM	0	0	174.000
MET	0	0	4	4

XHO	1	0	4	192
XHO	1	0	5	192
HLD	2	0	2	192
HLD	2	0	3	192
TAP	3	0	1
TAP	3	192	1
XTP	4	0	0
XTP	4	96	0
XTP	4	192	1
XTP	4	192	6
TAP	5	0	6
TAP	5	96	7
XTP	5	192	0
XTP	5	192	1
TAP	6	0	1
TAP	6	96	0
XTP	6	192	6
XTP	6	192	7
TAP	7	0	6
TAP	7	96	6
TAP	7	192	7
TAP	7	288	7
XTP	8	0	0
XTP	8	0	7
XTP	8	96	0
XTP	8	96	7
BRK	8	192	1
BRK	8	192	6
HLD	9	0	5	192
TAP	9	192	4
TAP	9	288	3
HLD	10	0	3	192
TAP	10	192	4
TAP	10	288	5
HLD	11	0	5	192
TAP	11	192	4
TAP	11	288	3
TAP	12	0	2
TAP	12	96	2
XTP	12	192	2
XTP	12	192	3
HLD	13	0	2	192
TAP	13	192	3
TAP	13	288	4
HLD	14	0	4	192
TAP	14	192	3
TAP	14	288	2
HLD	15	0	2	192
TAP	15	192	3
TAP	15	288	4
TAP	16	0	5
TAP	16	96	5
XTP	16	192	4
XTP	16	192	6
TAP	17	0	2
TAP	17	96	2
TAP	17	192	2
TAP	17	192	3
TAP	18	0	4
TAP	18	96	4
TAP	18	192	3
TAP	18	192	5
TAP	19	0	5
TAP	19	96	4
TAP	19	192	3
TAP	19	288	2
TAP	20	0	2
TAP	20	0	3
TAP	20	96	2
TAP	20	96	3
XTP	20	192	1
XTP	20	192	4
TAP	21	0	2
TAP	21	96	2
TAP	21	192	2
TAP	21	192	3
TAP	22	0	4
TAP	22	96	4
TAP	22	192	3
TAP	22	192	5
TAP	23	0	5
TAP	23	96	4
TAP	23	192	3
TAP	23	288	2
TAP	24	0	1
TAP	24	96	0
TAP	24	96	7
BRK	24	192	1
BRK	24	192	6
STR	25	0	7
SXR	25	0	7	96	480	2
STR	27	0	1
SI_	27	0	1	96	240	5
TAP	28	96	6
TAP	28	192	6
STR	29	0	5
SXL	29	0	5	96	480	2
TAP	31	0	1
TAP	31	96	1
XTP	31	192	0
XTP	31	192	1
XTP	32	0	0
XTP	32	0	7
XTP	32	96	1
XTP	32	96	6
BRK	32	192	2
BRK	32	192	5
TAP	33	0	1
TAP	33	96	1
TAP	33	192	0
TAP	33	192	1
TAP	33	288	0
TAP	33	288	1
TAP	34	0	2
TAP	34	96	3
XTP	34	192	4
XTP	34	192	5
HLD	35	0	5	96
TAP	35	96	4
HLD	35	192	3	96
TAP	35	288	4
TAP	36	0	5
TAP	36	96	6
TAP	36	96	7
XTP	36	192	0
XTP	36	192	5
TAP	37	0	6
TAP	37	96	6
TAP	37	192	6
TAP	37	192	7
TAP	37	288	6
TAP	37	288	7
TAP	38	0	5
TAP	38	96	4
XTP	38	192	2
XTP	38	192	3
TAP	39	0	2
TAP	39	96	3
STR	39	192	3
SI_	39	192	3	96	192	0
STR	39	192	4
SI_	39	192	4	96	192	7
XTP	40	192	1
XTP	40	192	6
XTP	41	0	0
XTP	41	96	0
TAP	41	192	1
TAP	41	288	2
TAP	42	0	3
XTP	42	96	4
XTP	42	96	5
XTP	42	192	4
XTP	42	192	5
XTP	43	0	6
XTP	43	96	6
TAP	43	192	5
TAP	43	288	4
TAP	44	0	3
XTP	44	96	2
XTP	44	96	3
XTP	44	192	2
XTP	44	192	3
XTP	45	0	1
XTP	45	96	1
TAP	45	192	0
TAP	45	288	7
TAP	46	0	6
XTP	46	96	4
XTP	46	96	5
XTP	46	192	4
XTP	46	192	5
XHO	47	0	6	192
TAP	47	192	7
TAP	47	288	7
HLD	48	0	0	192
TAP	48	192	7
TAP	48	288	7
TAP	49	0	6
TAP	49	96	6
STR	49	192	0
SI_	49	192	0	96	192	3
STR	49	192	7
SI_	49	192	7	96	192	4
XTP	50	192	2
XTP	50	192	5
TTP	51	0	5	B	0	L1
TTP	51	192	0	C	0	L1
TTP	52	0	2	B	0	L1
TTP	53	0	1	B	0	L1
TTP	53	192	0	C	0	L1
TTP	54	0	6	B	0	L1
TTP	55	0	7	E	0	L1
TTP	55	192	0	C	0	L1
TTP	56	0	3	E	0	L1
TTP	56	192	4	E	0	L1
TTP	57	0	5	E	0	L1
TTP	57	192	6	E	0	L1
TTP	58	0	0	C	1	L1
STR	59	0	0
SI_	59	0	0	96	192	4
STR	60	0	5
SCL	60	0	5	96	192	2
XHO	61	0	1	192
HLD	61	192	0	192
HLD	62	0	7	192
XTP	62	192	6
STR	63	0	7
SI_	63	0	7	96	192	3
STR	64	0	2
SCR	64	0	2	96	192	5
XTP	65	0	6
XTP	65	96	6
TAP	65	192	5
TAP	65	288	5
STR	66	0	3
SI_	66	0	3	96	192	7
STR	66	0	4
SI_	66	0	4	96	192	0
XTP	67	0	1
XTP	67	0	6
XTP	68	0	0
XTP	68	96	0
XTP	68	192	0
TAP	69	0	6
TAP	69	0	7
TAP	69	96	6
TAP	69	96	7
TAP	69	192	0
TAP	69	288	1
TAP	70	0	0
TAP	70	0	1
TAP	70	96	0
TAP	70	96	1
XTP	70	192	2
XTP	70	192	7
HLD	71	0	2	96
TAP	71	96	3
HLD	71	192	5	96
TAP	71	288	4
TAP	72	0	3
TAP	72	96	2
TAP	72	96	3
XTP	72	192	1
XTP	72	192	4
TAP	73	0	0
TAP	73	0	1
TAP	73	96	0
TAP	73	96	1
TAP	73	192	7
TAP	73	288	6
TAP	74	0	6
TAP	74	0	7
TAP	74	96	6
TAP	74	96	7
XTP	74	192	0
XTP	74	192	5
TAP	75	0	5
TAP	75	96	4
STR	75	192	3
SI_	75	192	3	96	192	0
STR	75	192	4
SI_	75	192	4	96	192	7
XTP	76	192	1
XTP	76	192	6
TAP	77	0	6
TAP	77	0	7
TAP	77	96	6
TAP	77	96	7
TAP	77	192	5
TAP	77	288	4
TAP	78	0	2
TAP	78	0	3
TAP	78	96	1
XTP	78	192	0
XTP	78	192	1
TAP	79	0	2
TAP	79	96	2
TAP	79	96	3
TAP	79	192	5
TAP	79	288	4
TAP	79	288	5
XTP	80	0	3
XTP	80	0	4
XTP	80	96	2
XTP	80	96	5
BRK	80	192	1
BRK	80	192	6
TAP	81	0	0
TAP	81	0	1
TAP	81	96	0
TAP	81	96	1
TAP	81	192	2
TAP	81	288	3
TAP	82	0	4
TAP	82	0	5
TAP	82	96	6
XTP	82	192	6
XTP	82	192	7
TAP	83	0	0
TAP	83	96	0
STR	83	192	0
SI_	83	192	0	96	192	3
STR	83	192	7
SI_	83	192	7	96	192	4
BRK	84	192	1
BRK	84	192	6
XTP	85	0	7
XTP	85	96	7
TAP	85	192	6
TAP	85	288	5
TAP	86	0	4
XTP	86	96	2
XTP	86	96	3
XTP	86	192	1
XTP	86	192	4
XTP	87	0	1
XTP	87	96	1
TAP	87	192	2
TAP	87	288	3
TAP	88	0	4
XTP	88	96	4
XTP	88	96	5
XTP	88	192	3
XTP	88	192	6
XTP	89	0	6
XTP	89	96	6
TAP	89	192	7
TAP	89	288	0
TAP	90	0	1
XTP	90	96	2
XTP	90	96	3
XTP	90	192	1
XTP	90	192	4
XHO	91	0	1	192
TAP	91	192	0
TAP	91	288	7
HLD	92	0	6	192
TAP	92	192	7
TAP	92	288	0
TAP	93	0	1
TAP	93	96	1
STR	93	192	0
SI_	93	192	0	96	192	3
STR	93	192	7
SI_	93	192	7	96	192	4
XTP	94	192	2
XTP	94	192	5
XHO	95	0	6	192
TAP	95	192	7
TAP	95	288	0
HLD	96	0	1	192
TAP	96	192	0
TAP	96	288	7
STR	97	0	0
SI_	97	0	0	96	192	3
STR	97	0	7
SI_	97	0	7	96	192	4
TTP	98	336	0	C	0	L1
TTP	98	336	2	B	0	L1
TTP	98	336	5	B	0	L1

T_REC_TAP	173
T_REC_BRK	10
T_REC_XTP	96
T_REC_HLD	17
T_REC_XHO	6
T_REC_STR	21
T_REC_BST	0
T_REC_XST	0
T_REC_TTP	16
T_REC_THO	0
T_REC_SLD	21
T_REC_ALL	360
T_NUM_TAP	306
T_NUM_BRK	10
T_NUM_HLD	23
T_NUM_SLD	21
T_NUM_ALL	360
T_JUDGE_TAP	316
T_JUDGE_HLD	84
T_JUDGE_SLD	21
T_JUDGE_ALL	421
TTM_EACHPAIRS	81
TTM_SCR_TAP	153000
TTM_SCR_BRK	26000
TTM_SCR_HLD	23000
TTM_SCR_SLD	31500
TTM_SCR_ALL	233500
TTM_SCR_S	225550
TTM_SCR_SS	232500
TTM_RAT_ACV	10043

