VERSION	0.00.00	1.03.00
FES_MODE	0
BPM_DEF	174.000	174.000	174.000	174.000
MET_DEF	4	4
RESOLUTION	384
CLK_DEF	384
COMPATIBLE_CODE	MA2

BPM	0	0	174.000
MET	0	0	4	4

TAP	5	0	3
TAP	6	0	3
TAP	7	0	4
TAP	8	0	4
TAP	9	0	3
TAP	10	0	3
TAP	11	0	2
TAP	11	192	2
TAP	12	0	2
TAP	13	0	1
TAP	14	0	1
TAP	15	0	0
TAP	15	192	0
TAP	16	0	0
TAP	17	0	7
TAP	18	0	7
TAP	19	0	6
TAP	19	192	6
TAP	20	0	6
TAP	21	0	5
TAP	22	0	5
HLD	23	0	3	384
HLD	23	0	4	384
TTP	25	0	2	B	0	L1
TTP	26	0	1	B	0	L1
TTP	27	0	0	B	0	L1
TTP	28	0	7	B	0	L1
TTP	29	0	6	B	0	L1
TTP	30	0	5	B	0	L1
THO	31	0	0	336	C	1	L1
TAP	33	0	0
TAP	33	192	0
HLD	34	0	0	192
TAP	35	0	1
TAP	35	192	1
TAP	36	0	1
TAP	36	96	1
TAP	36	192	1
TAP	37	0	2
TAP	37	192	2
HLD	38	0	2	192
TAP	39	0	3
TAP	39	192	3
TAP	40	0	3
TAP	40	96	3
TAP	40	192	3
TAP	40	192	4
HLD	41	0	5	192
HLD	42	0	4	192
TAP	43	0	3
TAP	43	192	3
TAP	44	0	2
TAP	44	96	2
TAP	44	192	2
HLD	45	0	2	192
HLD	46	0	3	192
TAP	47	0	4
TAP	47	192	3
TAP	47	192	4
TAP	48	0	3
TAP	48	192	3
TAP	48	192	4
TAP	49	0	4
TAP	49	192	3
TAP	49	192	4
XTP	50	0	3
XTP	50	96	3
BRK	50	192	3
STR	51	0	4
SI_	51	0	4	96	288	7
STR	53	0	3
SI_	53	0	3	96	288	0
STR	55	0	7
SI_	55	0	7	96	288	4
STR	57	0	0
SI_	57	0	0	96	288	3
TTP	59	0	4	B	0	L1
TTP	60	0	5	B	0	L1
TTP	61	0	6	B	0	L1
TTP	62	0	7	B	0	L1
TTP	63	0	0	B	0	L1
TTP	64	0	1	B	0	L1
TTP	65	0	2	B	0	L1
TTP	66	0	3	B	0	L1
TTP	66	0	4	B	0	L1
THO	67	0	0	384	C	1	L1
TAP	69	0	7
TAP	69	192	7
HLD	70	0	0	192
HLD	70	0	7	192
TAP	71	0	6
TAP	71	192	6
TAP	72	0	6
TAP	72	96	6
TAP	72	192	6
TAP	73	0	5
TAP	73	192	5
HLD	74	0	4	192
HLD	74	0	5	192
TAP	75	0	3
TAP	75	96	3
TAP	75	192	3
TAP	76	0	4
TAP	76	96	4
TAP	76	192	3
TAP	76	192	4
TAP	77	0	3
TAP	77	192	3
HLD	78	0	3	192
HLD	78	0	4	192
TAP	79	0	2
TAP	79	192	2
TAP	80	0	2
TAP	80	96	2
TAP	80	192	2
TAP	81	0	1
TAP	81	192	1
HLD	82	0	0	192
HLD	82	0	1	192
TAP	83	0	7
TAP	83	96	7
TAP	83	192	7
TAP	84	0	0
TAP	84	96	0
BRK	84	192	0
HLD	85	0	1	192
HLD	86	0	2	192
TAP	87	0	3
TAP	87	96	3
TAP	87	192	2
TAP	87	192	3
TAP	88	0	4
TAP	88	96	4
TAP	88	192	4
TAP	88	192	5
HLD	89	0	5	192
HLD	90	0	6	192
TAP	91	0	7
TAP	91	96	7
TAP	91	192	6
TAP	91	192	7
TAP	92	0	0
TAP	92	96	0
TAP	92	192	0
TAP	92	192	1
TAP	93	0	7
TAP	93	96	7
TAP	93	192	0
TAP	93	192	7
XTP	94	0	0
XTP	94	96	0
BRK	94	192	0
TAP	95	0	7
TAP	95	96	7
TAP	95	192	0
TAP	95	192	6
TAP	96	0	0
TAP	96	96	0
TAP	96	192	1
TAP	96	192	7
TAP	97	0	7
TAP	97	96	7
TAP	97	192	0
TAP	97	288	0
XTP	99	0	0
XTP	99	0	7
XTP	99	96	0
XTP	99	96	7
XTP	99	192	0
XTP	99	192	7

T_REC_TAP	112
T_REC_BRK	3
T_REC_XTP	10
T_REC_HLD	20
T_REC_XHO	0
T_REC_STR	4
T_REC_BST	0
T_REC_XST	0
T_REC_TTP	15
T_REC_THO	2
T_REC_SLD	4
T_REC_ALL	170
T_NUM_TAP	141
T_NUM_BRK	3
T_NUM_HLD	22
T_NUM_SLD	4
T_NUM_ALL	170
T_JUDGE_TAP	144
T_JUDGE_HLD	103
T_JUDGE_SLD	4
T_JUDGE_ALL	251
TTM_EACHPAIRS	20
TTM_SCR_TAP	70500
TTM_SCR_BRK	7800
TTM_SCR_HLD	22000
TTM_SCR_SLD	6000
TTM_SCR_ALL	106300
TTM_SCR_S	102850
TTM_SCR_SS	106000
TTM_RAT_ACV	10028

