VERSION	0.00.00	1.03.00
FES_MODE	0
BPM_DEF	125.000	125.000	125.000	125.000
MET_DEF	4	4
RESOLUTION	384
CLK_DEF	384
COMPATIBLE_CODE	MA2

BPM	0	0	125.000
MET	0	0	4	4

TAP	1	192	3
TAP	1	192	4
TAP	1	288	3
TAP	1	288	4
STR	2	0	2
SI_	2	0	2	96	48	4
TAP	2	96	5
STR	2	192	4
SI_	2	192	4	96	48	2
TAP	2	288	5
STR	3	0	5
SI_	3	0	5	96	48	3
TAP	3	96	2
STR	3	192	3
SI_	3	192	3	96	48	5
TAP	3	288	2
STR	4	0	3
SI_	4	0	3	96	48	1
STR	4	96	6
SI_	4	96	6	96	48	4
TAP	4	192	3
HLD	4	240	3	96
TAP	4	336	4
STR	5	0	4
SI_	5	0	4	96	48	6
STR	5	96	1
SI_	5	96	1	96	48	3
TAP	5	192	4
HLD	5	240	4	96
TAP	5	336	3
STR	6	0	4
SI_	6	0	4	96	48	6
TAP	6	96	2
STR	6	192	6
SI_	6	192	6	96	48	4
TAP	6	288	3
STR	7	0	3
SI_	7	0	3	96	48	1
TAP	7	96	5
STR	7	192	1
SI_	7	192	1	96	48	3
TAP	7	288	4
STR	8	0	4
SUL	8	0	4	96	192	3
TAP	8	96	3
TAP	8	192	2
TAP	8	240	2
TAP	9	0	3
TAP	9	0	4
TAP	10	0	4
TAP	10	0	5
TAP	10	48	3
HLD	10	96	2	72
HLD	10	168	3	72
TAP	10	240	2
TAP	10	288	1
TAP	10	288	4
TAP	11	0	2
TAP	11	0	3
TAP	11	48	4
HLD	11	96	5	72
HLD	11	168	4	72
TAP	11	240	5
TAP	11	288	3
TAP	11	288	6
TAP	12	0	4
TAP	12	0	5
TAP	12	48	3
HLD	12	96	2	72
HLD	12	168	3	72
TAP	12	240	2
TAP	12	288	3
TAP	12	336	4
HLD	13	0	5	72
HLD	13	72	4	72
TAP	13	144	5
TAP	13	192	3
TAP	13	192	6
TAP	13	240	5
TAP	13	288	1
TAP	13	288	4
TAP	13	336	2
TAP	14	0	3
TAP	14	0	5
TAP	14	48	4
HLD	14	96	6	72
HLD	14	168	4	72
TAP	14	240	5
TAP	14	288	3
TAP	14	288	6
TAP	15	0	2
TAP	15	0	4
TAP	15	48	3
HLD	15	96	1	72
HLD	15	168	3	72
TAP	15	240	2
TAP	15	288	1
TAP	15	288	4
TAP	16	0	3
TAP	16	0	5
TAP	16	48	4
HLD	16	96	6	72
HLD	16	168	4	72
TAP	16	240	6
TAP	16	288	4
TAP	16	336	3
HLD	17	0	1	72
HLD	17	72	3	72
TAP	17	144	2
TAP	17	192	1
STR	17	192	4
SI_	17	192	4	96	48	7
TAP	17	288	3
TAP	18	48	1
TAP	18	96	1
TAP	18	144	5
STR	18	192	5
SI_	18	192	5	96	48	3
TAP	18	240	3
TAP	18	288	2
TAP	18	336	1
TAP	19	48	6
TAP	19	96	6
TAP	19	144	2
STR	19	192	2
SI_	19	192	2	96	48	4
TAP	19	240	4
TAP	19	288	5
TAP	19	336	6
TAP	20	48	1
TAP	20	96	1
STR	20	144	7
SI_	20	144	7	96	48	3
TAP	20	192	2
TAP	20	240	2
TAP	21	0	5
TAP	21	48	4
TAP	21	96	3
STR	21	144	2
SCR	21	144	2	96	48	5
TAP	21	192	7
HLD	21	240	7	96
TAP	21	336	0
TAP	22	48	6
TAP	22	96	6
TAP	22	144	4
STR	22	192	4
SI_	22	192	4	96	48	2
TAP	22	240	5
TAP	22	288	6
TAP	22	336	7
TAP	23	48	1
TAP	23	96	1
TAP	23	144	3
STR	23	192	3
SI_	23	192	3	96	48	5
TAP	23	240	2
TAP	23	288	1
TAP	23	336	0
HLD	24	96	5	96
HLD	24	192	4	96
STR	24	288	3
SUR	24	288	3	96	144	4
TAP	25	192	2
TAP	25	240	2
TAP	25	288	3
TAP	25	312	4
TAP	25	336	3
STR	26	0	2
SCL	26	0	2	96	192	5
TAP	26	0	5
TAP	26	96	4
TAP	26	192	3
TAP	26	288	4
TAP	27	0	2
STR	27	0	5
SUR	27	0	5	96	144	2
TAP	27	96	3
TAP	27	192	4
TAP	27	288	3
STR	28	0	3
SV_	28	0	3	96	96	4
TAP	28	0	4
TAP	28	96	5
TAP	28	192	6
TAP	28	288	0
TAP	28	288	7
HLD	29	0	1	72
HLD	29	72	2	72
STR	29	144	3
SI_	29	144	3	96	48	0
TAP	29	240	7
TAP	29	288	7
STR	30	0	5
SI_	30	0	5	96	48	3
TAP	30	48	5
STR	30	96	1
SI_	30	96	1	96	48	7
TAP	30	144	1
STR	30	192	6
SI_	30	192	6	96	48	2
TAP	30	240	6
TAP	31	0	0
TAP	31	0	1
TAP	31	48	2
TAP	31	96	3
TAP	31	96	4
TAP	31	144	5
HLD	31	192	6	72
TAP	31	192	7
HLD	31	264	5	72
TAP	31	336	4
TAP	32	0	0
HLD	32	0	1	72
HLD	32	72	2	72
STR	32	144	3
SI_	32	144	3	96	48	0
TAP	32	240	7
TAP	32	288	7
XTP	33	0	3
XTP	33	0	4
BRK	33	72	1
BRK	33	72	6
TTP	33	144	0	B	0	M1
TTP	33	144	0	E	0	M1
TTP	33	144	0	C	1	M1
TTP	33	144	4	B	0	M1
TTP	33	144	4	E	0	M1
TAP	33	288	2
TAP	33	288	3
TAP	33	336	3
TAP	33	336	4
TAP	34	0	4
TAP	34	0	5
STR	34	48	6
SI_	34	48	6	96	48	3
TAP	34	72	7
TAP	34	120	7
TAP	34	144	6
TAP	34	192	2
STR	34	240	1
SI_	34	240	1	96	48	4
TAP	34	264	0
TAP	34	312	0
TAP	34	336	1
TAP	35	0	5
STR	35	48	6
SXR	35	48	6	96	144	3
TAP	35	96	7
TAP	35	144	0
TAP	35	288	2
TAP	35	336	2
TAP	35	360	3
TAP	36	0	1
TAP	36	48	5
TAP	36	72	4
TAP	36	96	6
TAP	36	144	3
TAP	36	168	4
TAP	36	192	3
TAP	36	240	2
TAP	36	240	5
STR	36	288	1
SI_	36	288	1	96	48	4
STR	36	288	6
SI_	36	288	6	96	48	3
TAP	36	336	0
TAP	36	336	7
BRK	37	0	1
BRK	37	0	6
TTP	37	96	1	E	0	M1
TTP	37	96	7	E	0	M1
TTP	37	144	2	E	0	M1
TTP	37	144	6	E	0	M1
TTP	37	192	3	E	0	M1
TTP	37	192	5	E	0	M1
TTP	37	240	0	E	0	M1
TTP	37	240	4	E	0	M1
TTP	37	288	0	C	1	M1
TTP	37	288	2	E	0	M1
TTP	37	288	6	E	0	M1
TAP	38	0	0
TAP	38	0	7
STR	38	48	1
SI_	38	48	1	96	48	4
TAP	38	72	0
TAP	38	120	0
TAP	38	144	1
TAP	38	192	5
STR	38	240	6
SI_	38	240	6	96	48	3
TAP	38	264	7
TAP	38	312	7
TAP	38	336	6
TAP	39	0	2
STR	39	48	1
SXL	39	48	1	96	144	4
TAP	39	96	0
TAP	39	144	7
TAP	39	288	5
STR	39	336	6
SI_	39	336	6	96	48	3
STR	39	336	7
SI_	39	336	7	96	48	2
XTP	40	0	0
XTP	40	0	5
XTP	40	48	6
XTP	40	48	7
XTP	40	192	2
XTP	40	192	7
XTP	40	240	0
XTP	40	240	1
TAP	40	288	6
TAP	40	288	7
TAP	40	336	0
TAP	40	336	5
TTP	41	0	1	E	0	M1
TTP	41	24	5	E	0	M1
TTP	41	48	2	E	0	M1
TTP	41	72	6	E	0	M1
TTP	41	96	3	E	0	M1
TTP	41	120	7	E	0	M1
TTP	41	144	4	E	0	M1
TTP	41	168	0	C	0	M1
TTP	41	216	1	E	0	M1
TTP	41	240	7	E	0	M1
TTP	41	264	2	E	0	M1
TTP	41	288	6	E	0	M1
TTP	41	312	3	E	0	M1
TTP	41	336	5	E	0	M1
TTP	41	360	4	E	0	M1
TTP	42	0	7	B	0	M1
TTP	42	24	2	E	0	M1
TTP	42	48	4	B	0	M1
TTP	42	72	0	B	0	M1
TTP	42	96	6	E	0	M1
TTP	42	120	3	B	0	M1
TTP	42	144	7	B	0	M1
TTP	42	168	2	E	0	M1
TTP	42	192	4	B	0	M1
TTP	42	216	0	B	0	M1
TTP	42	240	6	E	0	M1
TTP	42	264	3	B	0	M1
TTP	42	288	0	E	0	M1
TTP	42	312	4	E	0	M1
TTP	42	336	0	C	0	M1
TTP	43	24	1	E	0	M1
TTP	43	24	1	B	0	M1
TTP	43	72	7	B	0	M1
TTP	43	72	7	E	0	M1
TTP	43	120	3	B	0	M1
TTP	43	120	3	E	0	M1
TTP	43	168	5	E	0	M1
TTP	43	168	5	B	0	M1
TTP	43	216	0	B	0	M1
TTP	43	216	1	E	0	M1
TTP	43	264	6	B	0	M1
TTP	43	264	7	E	0	M1
TTP	43	312	2	B	0	M1
TTP	43	312	3	E	0	M1
TTP	43	360	4	B	0	M1
TTP	43	360	5	E	0	M1
TTP	44	24	0	B	0	M1
TTP	44	24	0	E	0	M1
TTP	44	72	6	E	0	M1
TTP	44	72	6	B	0	M1
TTP	44	120	2	E	0	M1
TTP	44	120	2	B	0	M1
TTP	44	168	4	E	0	M1
TTP	44	168	4	B	0	M1
TTP	44	216	0	B	0	M1
TTP	44	216	1	B	0	M1
TTP	44	264	6	B	0	M1
TTP	44	264	7	B	0	M1
TTP	44	312	3	B	0	M1
TTP	44	336	4	B	0	M1
TTP	45	0	2	E	0	M1
TTP	45	24	7	E	0	M1
TTP	45	48	2	B	0	M1
TTP	45	72	6	B	0	M1
TTP	45	96	3	B	0	M1
TTP	45	120	5	B	0	M1
TTP	45	144	4	E	0	M1
TTP	45	192	6	E	0	M1
TTP	45	216	1	E	0	M1
TTP	45	240	5	B	0	M1
TTP	45	264	1	B	0	M1
TTP	45	288	4	B	0	M1
TTP	45	312	2	B	0	M1
TTP	45	336	4	E	0	M1
TTP	46	0	2	E	0	M1
TTP	46	24	6	E	0	M1
TTP	46	48	1	E	0	M1
TTP	46	72	7	E	0	M1
TTP	46	96	3	E	0	M1
TTP	46	120	5	E	0	M1
TTP	46	144	0	C	0	M1
TTP	46	240	0	E	0	M1
TTP	46	252	7	E	0	M1
TTP	46	264	6	E	0	M1
TTP	46	276	5	E	0	M1
TTP	46	288	4	E	0	M1
TTP	46	300	3	E	0	M1
TTP	46	312	2	E	0	M1
TTP	46	324	1	E	0	M1
TTP	46	336	0	E	0	M1
TTP	47	0	3	B	0	M1
TTP	47	24	4	B	0	M1
TTP	47	72	1	B	0	M1
TTP	47	72	2	E	0	M1
TTP	47	120	5	B	0	M1
TTP	47	120	6	E	0	M1
TTP	47	192	3	E	0	M1
TTP	47	192	4	E	0	M1
TTP	47	192	5	E	0	M1
TTP	47	240	0	B	0	M1
TTP	47	264	7	B	0	M1
TTP	47	312	2	B	0	M1
TTP	47	312	2	E	0	M1
TTP	47	312	6	B	0	M1
TTP	47	312	6	E	0	M1
TTP	48	0	1	B	0	M1
TTP	48	0	1	E	0	M1
TTP	48	0	4	B	0	M1
TTP	48	0	5	E	0	M1
TTP	48	72	2	B	0	M1
TTP	48	72	3	E	0	M1
TTP	48	72	6	B	0	M1
TTP	48	72	7	E	0	M1
TTP	48	144	0	E	0	M1
TTP	48	144	4	E	0	M1
TTP	48	192	0	C	1	M1
TTP	48	192	1	B	0	M1
TTP	48	192	2	B	0	M1
TTP	48	192	5	B	0	M1
TTP	48	192	6	B	0	M1
TAP	49	0	3
TAP	49	0	4
TAP	49	48	2
TAP	49	96	2
TAP	49	144	4
STR	49	192	4
SI_	49	192	4	96	48	2
TAP	49	240	2
TAP	49	288	1
TAP	49	336	0
TAP	50	48	5
TAP	50	96	5
TAP	50	144	3
STR	50	192	3
SI_	50	192	3	96	48	5
TAP	50	240	5
TAP	50	288	6
TAP	50	336	7
TAP	51	48	1
TAP	51	96	1
TAP	51	144	6
STR	51	192	6
SI_	51	192	6	96	48	3
TAP	51	240	3
TAP	51	288	2
TAP	51	336	1
TAP	52	48	5
TAP	52	96	5
TAP	52	144	1
STR	52	192	1
SI_	52	192	1	96	48	4
TAP	52	240	4
TAP	52	288	5
TAP	52	336	6
HLD	53	0	7	192
TAP	53	96	0
HLD	53	192	1	192
TAP	53	288	3
HLD	54	0	5	192
TAP	54	96	4
HLD	54	192	3	96
TAP	54	288	4
TAP	54	336	4
TAP	55	0	3
TAP	55	48	3
HLD	55	96	5	96
TAP	55	192	4
HLD	55	288	2	96
STR	56	0	3
SUR	56	0	3	96	192	4
HLD	57	0	4	768
TAP	57	0	6
TAP	57	96	5
TAP	57	192	5
TAP	57	288	5
TAP	58	0	3
TAP	58	96	3
TAP	58	192	3
TAP	58	288	2
HLD	59	0	3	768
TAP	59	96	4
TAP	59	192	4
TAP	59	288	4
TAP	60	0	2
TAP	60	96	2
TAP	60	192	2
TAP	60	288	4
STR	61	0	5
SI_	61	0	5	96	96	3
STR	61	192	7
SI_	61	192	7	96	96	5
STR	62	0	1
SI_	62	0	1	96	96	7
STR	62	192	3
SI_	62	192	3	96	96	1
STR	63	0	5
SI_	63	0	5	96	96	3
STR	63	192	2
SI_	63	192	2	96	96	4
TAP	64	0	5
TAP	64	336	3
TAP	64	360	3
STR	65	0	4
SCR	65	0	4	96	72	7
STR	65	72	7
SCR	65	72	7	96	72	2
STR	65	144	2
SCR	65	144	2	96	72	5
STR	65	216	5
SCR	65	216	5	96	72	0
TAP	65	288	1
TAP	65	336	2
HLD	66	0	3	96
TAP	66	96	4
TAP	66	144	1
TAP	66	144	6
TAP	66	240	3
TAP	66	240	4
TAP	66	288	2
TAP	66	312	4
TAP	66	336	3
TAP	66	360	5
XTP	67	0	4
XST	67	0	6
SI_	67	0	6	96	48	2
XTP	67	48	1
XTP	67	48	3
BRK	67	168	0
STR	67	288	2
SCL	67	288	2	96	192	5
TAP	67	336	5
HLD	68	168	0	72
TAP	68	240	4
TAP	68	288	2
TAP	68	288	6
STR	69	0	1
SI_	69	0	1	96	48	4
STR	69	0	5
SI_	69	0	5	96	48	0
TAP	69	48	0
TAP	69	48	4
BRK	69	96	1
BRK	69	96	5
TTP	69	168	0	C	1	M1
TTP	69	168	3	E	0	M1
TTP	69	168	7	E	0	M1
TAP	69	288	3
TAP	69	288	4
TAP	69	336	2
TAP	69	360	3
TAP	70	0	1
TAP	70	48	5
TAP	70	72	4
TAP	70	96	6
TAP	70	144	0
TAP	70	168	7
TAP	70	192	0
TAP	70	240	1
TAP	70	240	5
STR	70	288	2
SI_	70	288	2	96	48	7
STR	70	288	6
SI_	70	288	6	96	48	3
TAP	70	336	3
TAP	70	336	7
BRK	71	0	2
BRK	71	0	6
TAP	71	96	1
TAP	71	96	5
TAP	71	144	3
TAP	71	168	3
STR	71	192	4
SF_	71	192	4	96	48	0
TAP	71	240	2
TAP	71	240	6
TAP	72	0	3
TAP	72	0	4
STR	72	48	1
SI_	72	48	1	96	48	5
TAP	72	72	0
TAP	72	120	0
TAP	72	144	1
TAP	72	192	4
STR	72	240	6
SI_	72	240	6	96	48	2
TAP	72	264	7
TAP	72	312	7
TAP	72	336	6
TAP	73	0	3
STR	73	48	1
SXR	73	48	1	96	144	6
TAP	73	96	2
TAP	73	144	3
TAP	73	288	5
STR	73	336	6
SI_	73	336	6	96	48	3
STR	73	336	7
SI_	73	336	7	96	48	2
XTP	74	0	0
XTP	74	0	5
XTP	74	48	6
XTP	74	48	7
XTP	74	192	2
XST	74	240	0
SI_	74	240	0	96	48	5
XST	74	240	1
SI_	74	240	1	96	48	4
TAP	74	288	2
TAP	74	288	7
BRK	74	336	0
BRK	74	336	1
TTP	75	48	3	E	0	M1
TTP	75	72	7	E	0	M1
TTP	75	96	2	E	0	M1
TTP	75	120	6	E	0	M1
TTP	75	144	1	E	0	M1
TTP	75	168	5	E	0	M1
TTP	75	192	0	E	0	M1
TTP	75	192	0	B	0	M1
TTP	75	216	4	E	0	M1
TTP	75	216	4	B	0	M1
TTP	75	240	2	E	0	M1
TTP	75	240	2	B	0	M1
TTP	75	264	6	B	0	M1
TTP	75	264	6	E	0	M1
THO	75	288	0	96	C	1	M1
BRK	76	0	7

T_REC_TAP	286
T_REC_BRK	12
T_REC_XTP	18
T_REC_HLD	37
T_REC_XHO	0
T_REC_STR	65
T_REC_BST	0
T_REC_XST	3
T_REC_TTP	153
T_REC_THO	1
T_REC_SLD	68
T_REC_ALL	643
T_NUM_TAP	525
T_NUM_BRK	12
T_NUM_HLD	38
T_NUM_SLD	68
T_NUM_ALL	643
T_JUDGE_TAP	537
T_JUDGE_HLD	110
T_JUDGE_SLD	68
T_JUDGE_ALL	715
TTM_EACHPAIRS	65
TTM_SCR_TAP	262500
TTM_SCR_BRK	31200
TTM_SCR_HLD	38000
TTM_SCR_SLD	102000
TTM_SCR_ALL	433700
TTM_SCR_S	419550
TTM_SCR_SS	432500
TTM_RAT_ACV	10027

