VERSION	0.00.00	1.03.00
FES_MODE	0
BPM_DEF	125.000	125.000	125.000	125.000
MET_DEF	4	4
RESOLUTION	384
CLK_DEF	384
COMPATIBLE_CODE	MA2

BPM	0	0	125.000
MET	0	0	4	4

STR	2	0	5
SCL	2	0	5	96	96	2
TAP	2	192	1
TAP	2	288	1
STR	3	0	2
SCR	3	0	2	96	96	5
TAP	3	192	6
TAP	3	288	6
STR	4	0	5
SCL	4	0	5	96	96	2
TAP	4	192	1
TAP	4	288	1
STR	5	0	0
SCR	5	0	0	96	96	3
TAP	5	192	4
TAP	5	288	4
STR	6	0	2
SCR	6	0	2	96	96	5
TAP	6	192	6
TAP	6	288	6
STR	7	0	5
SCL	7	0	5	96	96	2
TAP	7	192	1
TAP	7	288	1
STR	8	0	2
SCR	8	0	2	96	96	5
TAP	8	192	6
TAP	8	288	6
HLD	9	0	7	288
BRK	9	288	0
TAP	10	0	7
TAP	10	48	6
HLD	10	96	5	96
TAP	10	192	4
TAP	10	288	2
TAP	10	288	4
TAP	11	0	0
TAP	11	48	1
HLD	11	96	2	96
TAP	11	192	3
TAP	11	288	3
TAP	11	288	5
TAP	12	0	7
TAP	12	48	6
HLD	12	96	5	96
TAP	12	192	4
TAP	12	288	2
TAP	12	288	4
TAP	13	0	1
TAP	13	96	0
TAP	13	192	7
TAP	13	240	7
TAP	13	288	3
TAP	13	288	6
TAP	14	0	0
TAP	14	48	1
HLD	14	96	2	96
TAP	14	192	3
TAP	14	288	3
TAP	14	288	5
TAP	15	0	7
TAP	15	48	6
HLD	15	96	5	96
TAP	15	192	4
TAP	15	288	2
TAP	15	288	4
TAP	16	0	0
TAP	16	48	1
HLD	16	96	2	96
TAP	16	192	3
TAP	16	288	3
TAP	16	288	5
TAP	17	0	7
TAP	17	48	7
TAP	17	96	0
TAP	17	192	2
TAP	17	192	5
TAP	17	288	3
TAP	17	288	4
HLD	18	0	5	384
TAP	18	96	4
TAP	18	192	4
TAP	18	288	4
HLD	19	0	3	384
TAP	19	96	4
TAP	19	192	4
TAP	19	288	4
HLD	20	0	5	384
TAP	20	96	4
TAP	20	192	4
TAP	20	288	4
HLD	21	0	3	192
TAP	21	96	4
TAP	21	192	4
TAP	21	288	3
TAP	21	288	4
HLD	22	0	2	384
TAP	22	96	3
TAP	22	192	3
TAP	22	288	3
HLD	23	0	4	384
TAP	23	96	3
TAP	23	192	3
TAP	23	288	3
HLD	24	0	2	384
STR	25	0	5
SI_	25	0	5	96	96	2
TAP	25	288	1
STR	26	0	0
SCR	26	0	0	96	144	5
TAP	26	288	6
STR	27	0	7
SCL	27	0	7	96	144	2
TAP	27	288	1
STR	28	0	0
SCR	28	0	0	96	144	5
TAP	28	288	6
STR	29	0	7
SI_	29	0	7	96	96	3
TAP	29	288	2
TAP	29	288	4
TAP	30	0	1
TAP	30	96	0
TAP	30	144	0
TAP	30	192	7
TAP	30	288	3
TAP	30	288	5
TAP	31	0	6
TAP	31	96	7
TAP	31	144	7
TAP	31	192	0
TAP	31	288	2
TAP	31	288	4
HLD	32	0	1	384
HLD	32	0	6	192
TTP	33	0	0	C	1	M1
BRK	33	288	0
BRK	33	288	7
TAP	34	0	5
TAP	34	48	5
TAP	34	96	4
TAP	34	96	6
TAP	34	192	2
TAP	34	240	2
TAP	34	288	1
TAP	34	288	3
TAP	35	0	0
TAP	35	48	0
STR	35	96	7
SI_	35	96	7	96	48	3
HLD	35	288	2	96
TAP	36	0	3
HLD	36	96	5	96
TAP	36	192	4
TAP	36	240	4
TAP	36	288	3
TAP	36	288	6
TAP	37	0	1
TAP	37	0	4
TAP	37	96	0
TAP	37	144	7
XTP	37	192	1
XTP	37	192	6
TAP	37	288	3
TAP	37	288	4
TAP	38	0	2
TAP	38	48	2
TAP	38	96	1
TAP	38	96	3
TAP	38	192	5
TAP	38	240	5
TAP	38	288	4
TAP	38	288	6
TAP	39	0	7
TAP	39	48	7
STR	39	96	0
SI_	39	96	0	96	48	4
HLD	39	288	5	96
TAP	40	0	4
TAP	40	48	4
TAP	40	48	5
TAP	40	192	2
TAP	40	192	3
TAP	40	240	2
TAP	40	240	3
TAP	41	0	1
TAP	41	48	2
TAP	41	96	3
TAP	41	144	4
STR	41	192	5
SCL	41	192	5	96	96	2
TAP	42	0	0
TAP	42	48	0
TAP	42	96	7
TAP	42	144	0
TAP	42	192	7
TAP	42	240	6
TAP	42	288	5
TAP	42	336	4
TAP	43	0	2
TAP	43	0	3
TAP	43	96	0
TAP	43	96	1
TAP	43	192	6
TAP	43	192	7
TAP	43	288	4
TAP	43	288	5
TAP	44	0	4
TAP	44	0	5
TAP	44	96	6
TAP	44	96	7
TAP	44	192	0
TAP	44	192	1
TAP	44	288	2
TAP	44	288	4
HLD	45	0	5	96
HLD	45	96	7	96
HLD	45	192	0	96
TAP	45	288	2
TAP	46	0	4
TAP	46	48	4
TAP	46	96	3
TAP	46	144	4
STR	46	192	3
SCL	46	192	3	96	96	0
HLD	47	0	6	96
HLD	47	96	4	96
HLD	47	192	3	96
STR	47	288	1
SUR	47	288	1	96	240	3
TTP	49	0	7	E	0	M1
TTP	49	96	6	E	0	M1
TTP	49	192	5	E	0	M1
TTP	49	288	0	C	0	M1
TTP	49	288	4	E	0	M1
TTP	50	0	3	E	0	M1
TTP	50	96	2	E	0	M1
TTP	50	192	1	E	0	M1
TTP	50	288	0	E	0	M1
TTP	50	288	0	C	0	M1
TTP	51	0	7	E	0	M1
TTP	51	96	6	E	0	M1
TTP	51	192	5	E	0	M1
TTP	51	288	0	C	0	M1
TTP	51	288	4	E	0	M1
TTP	52	0	3	E	0	M1
TTP	52	96	2	E	0	M1
TTP	52	192	1	E	0	M1
TTP	52	192	7	E	0	M1
HLD	53	0	7	192
HLD	53	192	6	192
HLD	54	0	5	192
TAP	54	192	4
TAP	54	288	3
TAP	54	288	4
HLD	55	0	3	192
HLD	55	192	2	192
HLD	56	0	1	192
TAP	56	192	0
TAP	56	288	0
HLD	57	0	7	768
TAP	57	192	4
TAP	57	288	4
TAP	58	0	4
TAP	58	96	4
TAP	58	192	4
HLD	59	0	0	768
TAP	59	192	3
TAP	59	288	3
TAP	60	0	3
TAP	60	96	3
TAP	60	192	3
HLD	61	0	7	768
TAP	62	0	4
TAP	62	192	4
HLD	63	0	0	672
HLD	64	0	4	288
STR	65	0	6
SI_	65	0	6	96	48	2
STR	65	192	1
SI_	65	192	1	96	48	5
HLD	66	0	7	288
TAP	66	192	0
TAP	66	240	0
TAP	66	288	0
TAP	67	0	1
TAP	67	0	6
HLD	67	48	1	120
HLD	67	48	6	120
THO	68	0	0	192	C	1	M1
TAP	69	0	7
TAP	69	48	7
STR	69	96	0
SI_	69	96	0	96	48	4
HLD	69	288	6	96
TAP	70	0	7
HLD	70	96	1	96
TAP	70	192	0
TAP	70	240	0
TAP	70	288	2
TAP	70	288	7
TAP	71	0	1
TAP	71	0	4
BST	71	96	0
SI_	71	96	0	96	48	4
BST	71	96	7
SI_	71	96	7	96	48	3
XTP	71	288	2
XTP	71	288	5
TAP	72	0	6
TAP	72	48	6
TAP	72	96	5
TAP	72	96	7
TAP	72	192	1
TAP	72	240	1
TAP	72	288	0
TAP	72	288	2
TAP	73	0	0
TAP	73	48	0
STR	73	96	7
SI_	73	96	7	96	48	3
HLD	73	288	1	96
TAP	74	0	7
TAP	74	48	1
TAP	74	48	7
TAP	74	192	0
TAP	74	192	6
TAP	74	240	0
TAP	74	240	6
TAP	74	288	1
TAP	74	288	7
TAP	74	336	1
STR	74	336	7
SCL	74	336	7	96	192	1
TTP	76	0	0	C	1	M1

T_REC_TAP	216
T_REC_BRK	3
T_REC_XTP	4
T_REC_HLD	42
T_REC_XHO	0
T_REC_STR	22
T_REC_BST	2
T_REC_XST	0
T_REC_TTP	21
T_REC_THO	1
T_REC_SLD	24
T_REC_ALL	335
T_NUM_TAP	263
T_NUM_BRK	5
T_NUM_HLD	43
T_NUM_SLD	24
T_NUM_ALL	335
T_JUDGE_TAP	268
T_JUDGE_HLD	214
T_JUDGE_SLD	24
T_JUDGE_ALL	506
TTM_EACHPAIRS	48
TTM_SCR_TAP	131500
TTM_SCR_BRK	13000
TTM_SCR_HLD	43000
TTM_SCR_SLD	36000
TTM_SCR_ALL	223500
TTM_SCR_S	216350
TTM_SCR_SS	223000
TTM_RAT_ACV	10022

