VERSION	0.00.00	1.03.00
FES_MODE	0
BPM_DEF	125.000	125.000	125.000	125.000
MET_DEF	4	4
RESOLUTION	384
CLK_DEF	384
COMPATIBLE_CODE	MA2

BPM	0	0	125.000
MET	0	0	4	4

TTP	2	0	6	B	0	L1
TTP	2	192	4	B	0	L1
TTP	3	0	2	B	0	L1
TTP	4	0	1	B	0	L1
TTP	4	192	3	B	0	L1
TTP	5	0	5	B	0	L1
TTP	6	0	6	B	0	L1
TTP	6	192	4	B	0	L1
TTP	7	0	3	B	0	L1
TTP	7	192	1	B	0	L1
THO	8	0	0	384	C	0	L1
TAP	10	0	6
TAP	10	96	6
XTP	10	192	6
XTP	10	192	7
TAP	11	0	1
TAP	11	96	1
XTP	11	192	0
XTP	11	192	1
TAP	12	0	2
TAP	12	96	2
TAP	12	192	3
TAP	12	288	3
TAP	13	0	4
TAP	13	96	5
XTP	13	192	4
XTP	13	192	6
TAP	14	0	5
TAP	14	96	5
XTP	14	192	4
XTP	14	192	5
TAP	15	0	2
TAP	15	96	2
XTP	15	192	2
XTP	15	192	3
TAP	16	0	1
TAP	16	96	1
TAP	16	192	0
TAP	16	288	0
TAP	17	0	7
TAP	17	96	0
TAP	17	96	7
BRK	17	192	1
BRK	17	192	6
HLD	18	0	2	192
TAP	18	192	3
TAP	18	288	3
HLD	19	0	4	192
TAP	19	192	3
TAP	19	288	3
HLD	20	0	2	192
TAP	20	192	3
TAP	20	288	4
TAP	21	0	5
TAP	21	96	5
XTP	21	192	4
XTP	21	192	5
HLD	22	0	5	192
TAP	22	192	4
TAP	22	288	4
HLD	23	0	3	192
TAP	23	192	4
TAP	23	288	4
XHO	24	0	2	384
XHO	24	0	5	384
STR	26	0	6
SCL	26	0	6	96	144	3
STR	27	0	2
SCL	27	0	2	96	144	7
STR	28	0	6
SI_	28	0	6	96	144	3
XTP	29	0	2
XTP	29	96	2
XTP	29	192	2
STR	30	0	2
SI_	30	0	2	96	96	0
STR	31	0	7
SI_	31	0	7	96	96	5
STR	32	0	3
SI_	32	0	3	96	144	0
STR	32	0	4
SI_	32	0	4	96	144	7
BRK	33	0	1
BRK	33	0	6
TAP	34	0	1
XTP	34	96	0
XTP	34	96	1
TAP	34	192	1
XTP	34	288	0
XTP	34	288	1
TAP	35	0	2
TAP	35	96	2
XTP	35	192	1
XTP	35	192	3
TAP	36	0	2
TAP	36	96	3
STR	36	192	3
SI_	36	192	3	96	144	0
STR	36	192	4
SI_	36	192	4	96	144	7
XTP	37	192	1
XTP	37	192	6
TAP	38	0	6
XTP	38	96	6
XTP	38	96	7
TAP	38	192	6
XTP	38	288	6
XTP	38	288	7
TAP	39	0	5
TAP	39	96	5
XTP	39	192	4
XTP	39	192	6
XTP	40	0	0
XTP	40	0	7
XTP	40	96	0
XTP	40	96	7
XTP	40	192	1
XTP	40	192	6
STR	41	0	6
SI_	41	0	6	96	144	3
STR	41	0	7
SI_	41	0	7	96	144	2
STR	42	0	0
SI_	42	0	0	96	144	5
STR	42	0	1
SI_	42	0	1	96	144	4
TAP	43	0	6
TAP	43	96	6
TAP	43	192	5
TAP	43	288	4
TAP	44	0	3
TAP	44	96	2
XTP	44	192	1
XTP	44	192	4
STR	45	0	0
SI_	45	0	0	96	144	5
STR	45	0	1
SI_	45	0	1	96	144	4
STR	46	0	6
SI_	46	0	6	96	144	3
STR	46	0	7
SI_	46	0	7	96	144	2
TAP	47	0	1
TAP	47	96	1
TAP	47	192	0
TAP	47	288	0
TAP	48	0	7
XTP	48	96	0
XTP	48	96	7
BRK	48	192	1
BRK	48	192	6
STR	49	0	6
SCL	49	0	6	96	144	3
STR	50	0	2
SCR	50	0	2	96	144	5
STR	51	0	6
SI_	51	0	6	96	144	3
XTP	52	0	2
XTP	52	96	2
XTP	52	192	2
XTP	52	192	3
STR	53	0	1
SXL	53	0	1	96	480	5
TAP	54	288	6
STR	55	0	6
SXR	55	0	6	96	480	3
TAP	56	288	2
HLD	57	0	2	768
TAP	58	288	3
HLD	59	0	3	768
TAP	60	288	4
HLD	61	0	4	1152
HLD	63	0	5	384
XST	65	0	3
SI_	65	0	3	96	144	1
XST	65	0	4
SI_	65	0	4	96	144	6
STR	66	0	0
SI_	66	0	0	96	144	4
STR	66	0	7
SI_	66	0	7	96	144	3
XTP	67	0	1
XTP	67	0	6
HLD	68	0	2	288
XTP	68	288	3
TAP	69	0	1
TAP	69	96	0
TAP	69	96	1
XTP	69	192	2
XTP	69	192	7
HLD	70	0	2	96
XTP	70	96	3
HLD	70	192	5	96
XTP	70	288	4
STR	71	0	3
SI_	71	0	3	96	144	0
STR	71	0	4
SI_	71	0	4	96	144	7
TAP	72	0	1
XTP	72	96	0
XTP	72	96	1
TAP	72	192	6
XTP	72	288	6
XTP	72	288	7
TAP	73	0	5
XTP	73	96	4
XTP	73	96	5
XTP	73	192	3
XTP	73	192	6
TTP	74	0	5	B	0	L1
TTP	74	192	4	B	0	L1
TTP	74	192	6	B	0	L1
TTP	75	0	2	B	0	L1
TTP	75	192	1	B	0	L1
TTP	75	192	3	B	0	L1
TTP	76	0	0	C	1	L1

T_REC_TAP	64
T_REC_BRK	6
T_REC_XTP	58
T_REC_HLD	12
T_REC_XHO	2
T_REC_STR	26
T_REC_BST	0
T_REC_XST	2
T_REC_TTP	17
T_REC_THO	1
T_REC_SLD	28
T_REC_ALL	216
T_NUM_TAP	167
T_NUM_BRK	6
T_NUM_HLD	15
T_NUM_SLD	28
T_NUM_ALL	216
T_JUDGE_TAP	173
T_JUDGE_HLD	118
T_JUDGE_SLD	28
T_JUDGE_ALL	319
TTM_EACHPAIRS	40
TTM_SCR_TAP	83500
TTM_SCR_BRK	15600
TTM_SCR_HLD	15000
TTM_SCR_SLD	42000
TTM_SCR_ALL	156100
TTM_SCR_S	150850
TTM_SCR_SS	155500
TTM_RAT_ACV	10038

