VERSION	0.00.00	1.03.00
FES_MODE	0
BPM_DEF	140.000	140.000	140.000	140.000
MET_DEF	4	4
RESOLUTION	384
CLK_DEF	384
COMPATIBLE_CODE	MA2

BPM	0	0	140.000
MET	0	0	4	4

TTP	1	336	0	C	0	M1
TTP	1	336	2	B	0	M1
TTP	1	336	3	B	0	M1
TTP	1	336	6	B	0	M1
TTP	1	336	7	B	0	M1
TTP	3	96	0	B	0	M1
TTP	3	96	0	C	1	M1
TTP	3	96	1	B	0	M1
TTP	3	96	4	B	0	M1
TTP	3	96	5	B	0	M1
XTP	3	336	3
XTP	3	352	4
XTP	3	368	3
XTP	4	0	4
XTP	4	16	3
XTP	4	32	4
XTP	4	48	3
XTP	4	64	4
XTP	4	80	3
XTP	4	96	4
XTP	4	112	3
XTP	4	128	4
XTP	4	144	3
XTP	4	156	2
XTP	4	168	1
XTP	4	180	0
XTP	4	192	7
XTP	4	204	6
XTP	4	216	5
XTP	4	228	4
XTP	4	240	3
XTP	4	252	2
XTP	4	264	1
XTP	4	276	0
XTP	4	288	7
XTP	4	300	6
XTP	4	312	5
XTP	4	324	4
XTP	4	336	3
XTP	4	348	2
XTP	4	360	1
XTP	4	372	0
XTP	5	0	7
TAP	5	96	4
TAP	5	192	4
TAP	5	288	4
TAP	6	0	4
TAP	6	96	4
TAP	6	192	4
TAP	6	288	4
TAP	6	336	3
TAP	6	360	3
TAP	7	0	4
TAP	7	96	4
TAP	7	192	4
STR	7	288	4
SCR	7	288	4	96	144	3
TAP	8	0	4
TAP	8	240	4
TAP	8	264	3
TAP	8	288	4
TAP	8	312	3
TAP	8	336	4
TAP	8	360	3
TAP	9	0	4
TAP	9	48	2
TAP	9	72	3
TAP	9	96	1
TAP	9	144	5
TAP	9	168	4
TAP	9	192	6
TAP	9	240	2
TAP	9	264	3
TAP	9	288	1
TAP	9	336	5
TAP	9	360	4
TAP	10	0	6
TAP	10	48	1
TAP	10	72	0
TAP	10	96	2
TAP	10	144	6
TAP	10	168	7
TAP	10	192	5
TAP	10	240	1
TAP	10	264	0
TAP	10	288	2
TAP	10	336	6
TAP	10	360	7
TAP	11	0	5
TAP	11	48	3
TAP	11	48	4
TAP	11	96	2
TAP	11	144	0
TAP	11	144	1
TAP	11	192	7
TAP	11	240	5
TAP	11	240	6
TAP	11	288	4
TAP	11	336	2
TAP	11	336	3
TAP	12	0	1
TAP	12	48	0
TAP	12	48	7
TAP	12	96	1
TAP	12	96	6
TAP	12	144	2
TAP	12	144	5
TAP	12	192	3
TAP	12	192	4
TAP	12	240	5
TAP	12	288	4
TAP	12	336	3
STR	13	0	2
SI_	13	0	2	96	48	7
STR	13	96	5
SI_	13	96	5	96	48	0
STR	13	192	3
SI_	13	192	3	96	48	7
STR	13	288	7
SCL	13	288	7	96	96	1
TAP	14	0	0
TAP	14	48	0
TAP	14	96	0
TAP	14	144	0
TAP	14	192	0
TAP	14	240	5
TAP	14	288	4
TAP	14	336	3
STR	15	0	2
SI_	15	0	2	96	24	4
STR	15	96	6
SI_	15	96	6	96	24	0
STR	15	192	1
SI_	15	192	1	96	24	3
STR	15	288	5
SCR	15	288	5	96	144	3
TAP	16	0	4
TAP	16	48	4
TAP	16	96	4
TAP	16	144	4
TAP	16	192	4
TAP	16	240	4
TAP	16	240	5
STR	16	288	4
SI_	16	288	4	96	48	1
STR	16	288	5
SI_	16	288	5	96	48	0
XTP	17	0	4
XTP	17	0	5
STR	17	96	2
SI_	17	96	2	96	48	7
STR	17	96	3
SI_	17	96	3	96	48	6
XTP	17	192	2
XTP	17	192	3
STR	17	288	3
SI_	17	288	3	96	48	0
STR	17	288	4
SI_	17	288	4	96	48	7
XTP	18	0	3
XTP	18	0	4
XST	18	96	6
SCL	18	96	6	96	24	3
XST	18	96	7
SCR	18	96	7	96	24	2
TTP	18	192	0	E	0	M1
TTP	18	192	6	E	0	M1
TTP	18	204	1	E	0	M1
TTP	18	204	5	E	0	M1
TTP	18	216	2	E	0	M1
TTP	18	216	4	E	0	M1
BRK	18	288	1
BRK	18	288	6
HLD	19	0	0	96
TAP	19	144	0
TAP	19	144	7
TAP	19	192	6
TAP	19	240	5
TAP	19	288	4
TAP	19	336	3
TAP	20	0	2
TAP	20	0	5
TTP	20	96	0	C	1	M1
TTP	20	96	3	B	0	M1
TTP	20	96	4	B	0	M1
TTP	20	144	0	C	1	M1
TTP	20	144	0	E	0	M1
TTP	20	144	1	E	0	M1
TTP	20	144	7	E	0	M1
TTP	20	192	0	C	1	M1
TTP	20	192	2	E	0	M1
TTP	20	192	6	E	0	M1
STR	21	0	6
SCL	21	0	6	96	48	3
STR	21	96	7
SV_	21	96	7	96	48	2
STR	21	192	6
SCL	21	192	6	96	48	3
STR	21	288	7
SV_	21	288	7	96	48	2
STR	22	0	6
SCL	22	0	6	96	48	3
STR	22	96	7
SV_	22	96	7	96	48	2
STR	22	192	6
SCL	22	192	6	96	48	3
BRK	22	288	0
HLD	23	0	0	48
HLD	23	48	4	48
HLD	23	96	5	48
HLD	23	144	6	48
HLD	23	192	1	48
HLD	23	240	4	48
HLD	23	288	5	48
HLD	23	336	6	48
HLD	24	0	2	48
HLD	24	48	4	48
HLD	24	96	5	48
HLD	24	144	6	48
TAP	24	192	3
TAP	24	240	2
TAP	24	288	3
TAP	24	336	4
HLD	25	0	5	96
TAP	25	96	0
BRK	25	192	0
TAP	25	204	1
TAP	25	216	2
TAP	25	228	3
TAP	25	240	4
TAP	25	252	5
TAP	25	264	6
TAP	25	276	7
TAP	25	288	0
BRK	26	0	2
BRK	26	0	6
TAP	26	240	5
TAP	26	288	4
TAP	26	336	3
HLD	27	0	2	96
TAP	27	96	7
BRK	27	192	7
TAP	27	204	6
TAP	27	216	5
TAP	27	228	4
TAP	27	240	3
TAP	27	252	2
TAP	27	264	1
TAP	27	276	0
TAP	27	288	7
BRK	28	0	1
BRK	28	0	5
STR	28	288	2
SCL	28	288	2	96	48	7
STR	28	288	3
SUL	28	288	3	96	48	6
XTP	29	0	2
XTP	29	0	3
STR	29	96	4
SUR	29	96	4	96	48	1
STR	29	96	5
SCR	29	96	5	96	48	0
XTP	29	192	4
XTP	29	192	5
STR	29	288	3
SCL	29	288	3	96	48	0
STR	29	288	4
SCR	29	288	4	96	48	7
XTP	30	0	3
XTP	30	0	4
STR	30	96	0
SCL	30	96	0	96	24	5
STR	30	96	1
SCR	30	96	1	96	24	4
TTP	30	192	0	E	0	M1
TTP	30	192	2	E	0	M1
TTP	30	204	3	E	0	M1
TTP	30	204	7	E	0	M1
TTP	30	216	4	E	0	M1
TTP	30	216	6	E	0	M1
XTP	30	288	2
XTP	30	288	7
HLD	31	0	0	144
TAP	31	144	7
TAP	31	192	6
TAP	31	240	5
TAP	31	288	4
TAP	31	336	3
TAP	32	0	2
TAP	32	0	5
TTP	32	96	0	B	0	M1
TTP	32	96	0	C	1	M1
TTP	32	96	7	B	0	M1
TTP	32	144	0	C	1	M1
TTP	32	144	3	E	0	M1
TTP	32	144	4	E	0	M1
TTP	32	144	5	E	0	M1
TTP	32	192	0	C	1	M1
TTP	32	192	2	E	0	M1
TTP	32	192	6	E	0	M1
TAP	33	0	0
TAP	33	48	1
TAP	33	96	2
TAP	33	144	3
TAP	33	192	4
TAP	33	240	5
TAP	33	288	6
TAP	33	336	7
TAP	34	0	7
TAP	34	12	6
TAP	34	24	5
TAP	34	36	4
TAP	34	48	3
TAP	34	60	2
TAP	34	72	1
TAP	34	84	0
TAP	34	96	7
TAP	34	108	6
TAP	34	120	5
TAP	34	132	4
TAP	34	144	3
TAP	34	156	2
TAP	34	168	1
TAP	34	180	0
TAP	34	192	7
TAP	34	204	6
TAP	34	216	5
TAP	34	228	4
TAP	34	240	3
TAP	34	252	2
TAP	34	264	1
TAP	34	276	0
TAP	34	288	7
HLD	35	0	7	48
HLD	35	48	3	48
HLD	35	96	2	48
HLD	35	144	1	48
HLD	35	192	6	48
HLD	35	240	3	48
HLD	35	288	2	48
HLD	35	336	1	48
HLD	36	0	5	48
HLD	36	48	3	48
HLD	36	96	2	48
HLD	36	144	1	48
TAP	36	192	4
STR	36	288	2
SI_	36	288	2	96	24	0
TAP	36	288	5
TAP	37	0	2
STR	37	0	5
SI_	37	0	5	96	24	7
STR	37	96	2
SI_	37	96	2	96	24	0
TAP	37	96	5
TAP	37	192	2
STR	37	192	5
SI_	37	192	5	96	24	7
STR	37	288	2
SI_	37	288	2	96	24	0
TAP	37	288	5
TAP	38	0	2
STR	38	0	5
SI_	38	0	5	96	24	7
STR	38	96	2
SI_	38	96	2	96	24	0
TAP	38	96	5
TAP	38	192	2
STR	38	192	5
SI_	38	192	5	96	24	7
BRK	38	288	0
TAP	38	288	5
TTP	39	0	1	B	0	M1
TTP	39	0	2	B	0	M1
TTP	39	96	0	B	0	M1
TTP	39	96	1	E	0	M1
TTP	39	96	7	B	0	M1
TTP	39	96	7	E	0	M1
TTP	39	192	5	B	0	M1
TTP	39	192	6	B	0	M1
TTP	39	288	3	B	0	M1
TTP	39	288	3	E	0	M1
TTP	39	288	4	B	0	M1
TTP	39	288	5	E	0	M1
TAP	40	0	1
TAP	40	0	2
TAP	40	96	0
TAP	40	96	7
TAP	40	192	5
TAP	40	192	6
STR	40	288	3
SI_	40	288	3	96	24	0
STR	40	288	4
SI_	40	288	4	96	24	7
TTP	41	0	4	E	0	M1
TTP	41	12	0	C	1	M1
TTP	41	24	0	E	0	M1
HLD	42	0	7	288
HLD	42	192	0	96
STR	43	0	5
SI_	43	0	5	96	48	0
HLD	43	96	5	96
STR	43	192	2
SI_	43	192	2	96	48	7
HLD	43	288	2	96
STR	44	0	5
SI_	44	0	5	96	48	0
HLD	44	96	5	96
STR	44	192	2
SI_	44	192	2	96	48	7
TAP	44	288	2
TTP	45	0	4	B	0	M1
TTP	45	0	4	E	0	M1
TTP	45	0	5	B	0	M1
TTP	45	0	6	E	0	M1
TTP	45	48	7	E	0	M1
TTP	45	96	2	B	0	M1
TTP	45	96	3	B	0	M1
HLD	45	144	7	96
TAP	45	240	0
TAP	45	288	0
TTP	46	0	2	B	0	M1
TTP	46	0	2	E	0	M1
TTP	46	0	3	B	0	M1
TTP	46	0	4	E	0	M1
TTP	46	48	1	E	0	M1
TTP	46	96	4	B	0	M1
TTP	46	96	5	B	0	M1
HLD	46	144	0	96
TAP	46	240	7
TAP	46	288	7
TTP	46	336	1	B	0	M1
TTP	46	336	1	E	0	M1
TTP	46	336	2	E	0	M1
TTP	47	0	6	B	0	M1
TTP	47	0	6	E	0	M1
TTP	47	0	7	E	0	M1
TTP	47	48	3	B	0	M1
TTP	47	48	4	B	0	M1
TTP	47	48	4	E	0	M1
THO	47	96	0	96	C	1	M1
TTP	47	192	0	E	0	M1
TAP	48	0	0
TAP	48	0	7
TAP	48	48	1
TAP	48	48	6
STR	48	96	2
SXL	48	96	2	96	192	0
STR	48	96	5
SXR	48	96	5	96	192	7
TAP	48	144	3
TAP	48	144	4
TAP	49	240	5
TAP	49	288	4
TAP	49	336	3
HLD	50	0	2	96
TAP	50	96	5
TTP	50	192	0	B	0	M1
THO	50	192	0	192	C	1	M1
TTP	50	192	3	B	0	M1
TTP	50	192	3	E	0	M1
TTP	50	192	4	B	0	M1
TTP	50	192	7	B	0	M1
TTP	50	192	7	E	0	M1
TAP	51	240	1
TAP	51	288	7
TAP	51	336	3
HLD	52	0	5	96
TAP	52	96	2
TTP	52	192	0	B	0	M1
THO	52	192	0	192	C	1	M1
TTP	52	192	3	B	0	M1
TTP	52	192	3	E	0	M1
TTP	52	192	4	B	0	M1
TTP	52	192	7	B	0	M1
TTP	52	192	7	E	0	M1
TAP	53	192	1
TAP	53	192	6
STR	53	288	4
SCR	53	288	4	96	96	2
HLD	54	0	3	288
TTP	54	192	6	B	0	M1
TTP	54	240	1	B	0	M1
TTP	54	288	0	C	1	M1
TAP	55	0	0
TAP	55	0	7
XTP	55	96	1
XTP	55	96	6
TAP	55	192	0
TAP	55	192	7
TAP	55	204	1
TAP	55	204	6
TAP	55	216	2
TAP	55	216	5
TAP	55	228	3
TAP	55	228	4
BST	55	288	1
SCR	55	288	1	96	96	7
BRK	55	288	6
HLD	56	0	0	288
TTP	56	192	2	B	0	M1
TTP	56	240	5	B	0	M1
TTP	56	288	0	C	1	M1
TAP	57	0	0
TAP	57	0	7
TAP	57	96	0
TAP	57	108	1
TAP	57	120	2
TAP	57	144	7
TAP	57	156	6
HLD	57	168	5	24
BRK	57	192	0
TAP	57	288	3
TAP	57	288	4
TTP	58	0	7	E	0	M1
TTP	58	16	7	B	0	M1
TTP	58	32	0	B	0	M1
TTP	58	48	0	C	0	M1
TTP	58	64	4	B	0	M1
TTP	58	80	3	B	0	M1
TTP	58	96	3	E	0	M1
TTP	58	192	7	E	0	M1
TTP	58	208	7	B	0	M1
TTP	58	224	0	B	0	M1
TTP	58	240	0	C	0	M1
TTP	58	256	4	B	0	M1
TTP	58	272	3	B	0	M1
TTP	58	288	3	E	0	M1
TTP	59	0	7	E	0	M1
TTP	59	12	7	B	0	M1
TTP	59	24	0	B	0	M1
TTP	59	36	0	C	0	M1
TTP	59	48	4	B	0	M1
TTP	59	60	3	B	0	M1
TTP	59	72	3	E	0	M1
TTP	59	96	7	E	0	M1
TTP	59	108	7	B	0	M1
TTP	59	120	0	B	0	M1
TTP	59	132	0	C	0	M1
TTP	59	144	4	B	0	M1
TTP	59	156	3	B	0	M1
TTP	59	168	3	E	0	M1
TTP	59	192	7	E	0	M1
TTP	59	204	7	B	0	M1
TTP	59	216	0	B	0	M1
TTP	59	228	0	C	0	M1
TTP	59	240	4	B	0	M1
TTP	59	252	3	B	0	M1
TTP	59	264	3	E	0	M1
HLD	60	0	1	48
HLD	60	48	2	48
HLD	60	96	3	48
TTP	60	144	0	E	0	M1
HLD	60	192	1	48
HLD	60	240	2	48
HLD	60	288	3	48
TTP	60	336	4	E	0	M1
HLD	61	0	1	48
HLD	61	48	2	48
HLD	61	96	3	48
HLD	61	144	4	48
TTP	61	192	0	C	1	M1
TAP	62	0	2
TAP	62	48	3
STR	62	96	4
SCL	62	96	4	96	48	1
TAP	62	144	5
STR	62	192	4
SCR	62	192	4	96	48	7
TAP	63	0	5
TAP	63	48	4
STR	63	96	3
SCR	63	96	3	96	48	6
TAP	63	144	2
STR	63	192	3
SCL	63	192	3	96	48	0
TAP	63	336	7
HLD	64	0	7	144
THO	64	48	0	96	C	1	M1
TAP	64	192	0
TAP	64	204	7
TAP	64	216	6
TAP	64	228	5
TAP	64	240	4
TAP	64	252	3
TAP	64	264	2
TAP	64	276	1
TAP	64	288	0
TAP	64	300	7
TAP	64	312	6
TAP	64	324	5
TAP	64	336	4
TAP	64	348	3
TAP	64	360	2
TAP	64	372	1
HLD	65	0	0	408
HLD	65	0	4	480

T_REC_TAP	234
T_REC_BRK	12
T_REC_XTP	49
T_REC_HLD	53
T_REC_XHO	0
T_REC_STR	51
T_REC_BST	1
T_REC_XST	2
T_REC_TTP	137
T_REC_THO	4
T_REC_SLD	54
T_REC_ALL	597
T_NUM_TAP	473
T_NUM_BRK	13
T_NUM_HLD	57
T_NUM_SLD	54
T_NUM_ALL	597
T_JUDGE_TAP	486
T_JUDGE_HLD	112
T_JUDGE_SLD	54
T_JUDGE_ALL	652
TTM_EACHPAIRS	58
TTM_SCR_TAP	236500
TTM_SCR_BRK	33800
TTM_SCR_HLD	57000
TTM_SCR_SLD	81000
TTM_SCR_ALL	408300
TTM_SCR_S	394800
TTM_SCR_SS	407000
TTM_RAT_ACV	10031

