VERSION	0.00.00	1.03.00
FES_MODE	0
BPM_DEF	140.000	140.000	140.000	140.000
MET_DEF	4	4
RESOLUTION	384
CLK_DEF	384
COMPATIBLE_CODE	MA2

BPM	0	0	140.000
MET	0	0	4	4

XTP	1	336	3
XTP	1	360	3
XTP	2	0	3
XTP	2	24	3
XTP	3	96	4
XTP	3	144	4
XTP	3	168	4
XST	3	192	4
SCR	3	192	4	96	192	3
STR	5	0	0
SI_	5	0	0	96	144	2
STR	5	0	7
SI_	5	0	7	96	144	5
STR	6	0	1
SCR	6	0	1	96	168	3
STR	6	0	7
SLL	6	0	7	96	84	2
STR	7	0	6
SI_	7	0	6	96	96	2
SCR	7	0	6	96	144	4
STR	8	0	7
SLL	8	0	7	96	144	3
SLR	8	0	7	96	144	3
TAP	9	0	4
TAP	9	0	5
TAP	9	96	0
TAP	9	192	2
TAP	9	192	3
TAP	9	288	7
TAP	10	0	4
TAP	10	0	5
TAP	10	96	0
TAP	10	192	2
TAP	10	240	3
TAP	10	288	2
TAP	11	0	0
HLD	11	0	6	96
TAP	11	48	1
TAP	11	96	2
TAP	11	144	3
HLD	11	192	2	96
TAP	11	192	4
TAP	11	240	5
TAP	11	288	6
TAP	11	336	7
TAP	12	0	0
HLD	12	0	6	96
TAP	12	48	1
TAP	12	96	2
TAP	12	144	3
TAP	12	192	2
TAP	12	192	4
STR	12	288	3
SI_	12	288	3	96	48	1
TAP	12	288	5
STR	13	0	4
SI_	13	0	4	96	48	0
STR	13	96	3
SI_	13	96	3	96	48	1
STR	13	192	4
SI_	13	192	4	96	48	0
STR	13	288	3
SI_	13	288	3	96	48	1
STR	14	0	4
SI_	14	0	4	96	48	0
STR	14	96	3
SI_	14	96	3	96	48	1
TAP	14	192	4
TAP	14	240	4
STR	14	288	4
SI_	14	288	4	96	48	6
STR	15	0	3
SI_	15	0	3	96	48	7
STR	15	96	4
SI_	15	96	4	96	48	6
STR	15	192	3
SI_	15	192	3	96	48	7
STR	15	288	4
SI_	15	288	4	96	48	6
STR	16	0	3
SI_	16	0	3	96	48	7
STR	16	96	4
SI_	16	96	4	96	48	6
TAP	16	192	3
TAP	16	240	3
TAP	16	288	3
STR	17	0	2
SXR	17	0	2	96	96	4
STR	17	0	5
SXL	17	0	5	96	96	3
TAP	17	288	1
TAP	17	288	3
TAP	17	336	2
TAP	17	336	4
TAP	18	0	3
HLD	18	0	5	288
TTP	18	96	6	B	0	M1
TTP	18	192	0	E	0	M1
TTP	18	288	1	B	0	M1
STR	19	0	3
SXR	19	0	3	96	96	3
TAP	19	96	5
TAP	19	144	6
STR	19	192	7
SXR	19	192	7	96	96	7
TAP	19	288	1
TAP	19	336	2
HLD	20	0	3	192
THO	20	96	0	96	C	1	M1
STR	21	0	3
SI_	21	0	3	96	48	1
STR	21	96	4
SI_	21	96	4	96	48	7
STR	21	192	3
SI_	21	192	3	96	48	0
STR	21	288	4
SI_	21	288	4	96	48	6
STR	22	0	3
SI_	22	0	3	96	48	0
STR	22	96	4
SI_	22	96	4	96	48	7
STR	22	192	3
SI_	22	192	3	96	48	1
TAP	22	288	4
TAP	23	0	0
HLD	23	0	6	96
TAP	23	48	1
TAP	23	96	2
TAP	23	144	3
HLD	23	192	2	96
TAP	23	192	4
TAP	23	240	5
TAP	23	288	6
TAP	23	336	7
TAP	24	0	0
HLD	24	0	6	96
TAP	24	48	1
TAP	24	96	2
TAP	24	144	3
TAP	24	192	2
TAP	24	192	4
TAP	24	288	3
STR	24	288	7
SCL	24	288	7	96	96	3
STR	25	0	3
SCL	25	0	3	96	96	7
STR	25	96	7
SCL	25	96	7	96	96	3
STR	25	192	3
SCL	25	192	3	96	96	7
STR	25	288	7
SCL	25	288	7	96	96	3
STR	26	0	3
SCL	26	0	3	96	96	7
STR	26	96	7
SCL	26	96	7	96	96	3
XTP	26	192	2
XTP	26	240	1
XST	26	288	0
SCR	26	288	0	96	96	4
STR	27	0	4
SCR	27	0	4	96	96	0
STR	27	96	0
SCR	27	96	0	96	96	4
STR	27	192	4
SCR	27	192	4	96	96	0
STR	27	288	0
SCR	27	288	0	96	96	4
STR	28	0	4
SCR	28	0	4	96	96	0
STR	28	96	0
SCR	28	96	0	96	96	4
XTP	28	192	5
XTP	28	240	6
XTP	28	288	7
STR	29	0	2
SXR	29	0	2	96	96	4
STR	29	0	5
SXL	29	0	5	96	96	3
TAP	29	288	1
TAP	29	288	3
TAP	29	336	2
TAP	29	336	4
TAP	30	0	3
HLD	30	0	5	288
TTP	30	96	5	B	0	M1
TTP	30	96	6	B	0	M1
TTP	30	192	0	B	0	M1
TTP	30	192	7	B	0	M1
TTP	30	288	1	B	0	M1
TTP	30	288	2	B	0	M1
STR	31	0	3
SXR	31	0	3	96	96	3
TAP	31	96	5
TAP	31	144	6
STR	31	192	7
SXR	31	192	7	96	96	7
TAP	31	288	1
TAP	31	336	2
HLD	32	0	3	192
THO	32	96	0	96	C	1	M1
STR	33	0	0
SCR	33	0	0	96	96	4
STR	33	96	4
SUR	33	96	4	96	96	0
STR	33	192	0
SUR	33	192	0	96	96	4
STR	33	288	4
SCR	33	288	4	96	96	0
TAP	34	0	0
TAP	34	96	4
HLD	34	144	4	624
TTP	35	0	0	B	0	M1
TTP	35	48	1	B	0	M1
TTP	35	96	2	B	0	M1
TTP	35	144	3	B	0	M1
TTP	35	192	4	B	0	M1
TTP	35	240	5	B	0	M1
TTP	35	288	6	B	0	M1
TTP	35	336	7	B	0	M1
XTP	36	0	0
XTP	36	12	1
XTP	36	24	2
XTP	36	36	3
XTP	36	48	4
XTP	36	60	5
XTP	36	72	6
XTP	36	84	7
XTP	36	96	0
XTP	36	108	1
XTP	36	120	2
XTP	36	132	3
XTP	36	144	4
XTP	36	156	5
XTP	36	168	6
XTP	36	180	7
BRK	36	192	0
BRK	36	192	4
TTP	37	0	0	B	0	M1
TTP	37	96	1	B	0	M1
TTP	37	192	2	B	0	M1
TTP	37	288	3	B	0	M1
TTP	38	0	0	B	0	M1
TTP	38	0	4	B	0	M1
TTP	38	96	1	B	0	M1
TTP	38	96	5	B	0	M1
TTP	38	192	2	B	0	M1
TTP	38	192	6	B	0	M1
TTP	38	288	3	B	0	M1
TTP	38	288	7	B	0	M1
HLD	39	0	0	48
HLD	39	0	2	48
HLD	39	96	3	48
HLD	39	96	4	48
HLD	39	192	5	48
HLD	39	192	7	48
HLD	39	288	3	48
HLD	39	288	4	48
HLD	40	0	0	48
HLD	40	0	2	48
HLD	40	96	3	48
HLD	40	96	4	48
HLD	40	192	5	48
HLD	40	192	7	48
STR	40	288	3
SI_	40	288	3	96	48	0
STR	40	288	4
SI_	40	288	4	96	48	7
BRK	41	0	3
BRK	41	0	4
TAP	41	192	3
TAP	41	192	6
TAP	41	288	1
TAP	41	288	4
STR	42	0	0
SI_	42	0	0	96	48	4
TAP	42	0	5
TAP	42	96	6
TAP	42	192	2
STR	42	192	7
SI_	42	192	7	96	48	3
TAP	42	288	1
HLD	43	0	0	48
HLD	43	0	1	48
HLD	43	96	2	48
HLD	43	96	3	48
HLD	43	192	4	48
HLD	43	192	5	48
HLD	43	288	6	48
HLD	43	288	7	48
HLD	44	0	0	48
HLD	44	0	1	48
HLD	44	96	2	48
HLD	44	96	3	48
HLD	44	192	4	48
HLD	44	192	5	48
HLD	44	288	6	48
HLD	44	288	7	48
TAP	45	0	0
HLD	45	0	1	288
TAP	45	48	0
STR	45	96	0
SCR	45	96	0	96	96	4
TAP	45	144	0
HLD	46	0	6	288
TAP	46	0	7
TAP	46	48	7
STR	46	96	7
SCL	46	96	7	96	96	3
TAP	46	144	7
TTP	47	0	0	B	0	M1
TTP	47	0	1	E	0	M1
TTP	47	0	1	B	0	M1
TAP	47	96	3
TAP	47	96	4
TTP	47	192	6	B	0	M1
TTP	47	192	7	E	0	M1
TTP	47	192	7	B	0	M1
TAP	47	288	3
TAP	47	288	4
TTP	48	0	2	B	0	M1
TTP	48	0	3	B	0	M1
TTP	48	0	4	B	0	M1
TTP	48	0	5	B	0	M1
TAP	48	96	3
TAP	48	96	4
THO	48	192	0	240	C	1	M1
XTP	50	0	1
XTP	50	0	6
TAP	50	96	3
TAP	50	96	4
TAP	50	192	2
TAP	50	192	7
TAP	50	240	6
TAP	50	288	0
TAP	50	288	5
TAP	50	336	1
STR	51	0	2
SLR	51	0	2	96	72	0
STR	51	0	6
SLR	51	0	6	96	72	4
TAP	51	240	5
TAP	51	288	6
TAP	51	336	7
TAP	52	0	0
TAP	52	0	2
TAP	52	96	3
TAP	52	96	4
TAP	52	192	3
TAP	52	192	6
TAP	52	240	5
TAP	52	288	1
TAP	52	288	4
TAP	52	336	2
STR	53	0	3
SLR	53	0	3	96	72	1
STR	53	0	7
SLR	53	0	7	96	72	5
TTP	54	0	0	C	0	M1
TTP	54	0	1	B	0	M1
TTP	54	0	2	B	0	M1
TTP	54	0	3	B	0	M1
TTP	54	0	4	E	0	M1
TTP	54	0	4	B	0	M1
TTP	54	0	5	B	0	M1
TTP	54	0	6	B	0	M1
TAP	54	192	4
TAP	54	192	6
TAP	54	240	2
TAP	54	288	1
TAP	54	288	3
TAP	54	336	4
STR	55	0	3
SI_	55	0	3	96	48	6
HLD	55	0	5	288
XST	55	96	3
SI_	55	96	3	96	48	7
XST	55	192	3
SI_	55	192	3	96	48	0
XTP	55	288	3
STR	56	0	3
SXR	56	0	3	96	96	3
TAP	56	96	5
TAP	56	144	6
STR	56	192	7
SXR	56	192	7	96	96	7
TAP	56	288	1
TAP	56	336	2
HLD	57	0	3	96
STR	57	96	4
SF_	57	96	4	96	48	0
XTP	57	192	4
STR	58	0	6
SSR	58	0	6	96	96	2
TAP	58	96	0
STR	58	192	1
SSL	58	192	1	96	96	5
TAP	58	288	7
STR	59	0	6
SSR	59	0	6	96	96	2
TAP	59	96	0
STR	59	192	1
SSL	59	192	1	96	96	5
TAP	59	288	7
HLD	60	0	6	192
TAP	60	48	7
TAP	60	96	0
TAP	60	144	1
HLD	60	192	2	192
TAP	60	240	3
TAP	60	288	4
TAP	60	336	5
HLD	61	0	6	192
TAP	61	48	7
TAP	61	96	0
TAP	61	144	1
TAP	61	192	2
TAP	61	288	0
TAP	61	288	4
TTP	62	0	5	E	0	M1
TTP	62	0	5	B	0	M1
TTP	62	0	6	B	0	M1
TTP	62	0	7	E	0	M1
TTP	62	96	1	E	0	M1
TTP	62	96	1	B	0	M1
TTP	62	96	2	B	0	M1
TTP	62	96	3	E	0	M1
TTP	62	192	0	C	0	M1
TTP	63	0	5	B	0	M1
TTP	63	0	5	E	0	M1
TTP	63	0	6	B	0	M1
TTP	63	0	7	B	0	M1
TTP	63	96	0	B	0	M1
TTP	63	96	1	B	0	M1
TTP	63	96	2	B	0	M1
TTP	63	96	3	E	0	M1
TTP	63	192	0	C	0	M1
XTP	63	336	0
XTP	63	336	6
XTP	64	0	1
XTP	64	0	5
XST	64	48	2
SLL	64	48	2	96	144	3
XST	64	48	4
SLR	64	48	4	96	144	3
BRK	65	0	2
HLD	65	0	4	480
XTP	66	24	0
XTP	66	42	0
XTP	66	66	0
XTP	66	96	0

T_REC_TAP	135
T_REC_BRK	5
T_REC_XTP	40
T_REC_HLD	49
T_REC_XHO	0
T_REC_STR	70
T_REC_BST	0
T_REC_XST	6
T_REC_TTP	65
T_REC_THO	3
T_REC_SLD	78
T_REC_ALL	451
T_NUM_TAP	316
T_NUM_BRK	5
T_NUM_HLD	52
T_NUM_SLD	78
T_NUM_ALL	451
T_JUDGE_TAP	321
T_JUDGE_HLD	126
T_JUDGE_SLD	78
T_JUDGE_ALL	525
TTM_EACHPAIRS	68
TTM_SCR_TAP	158000
TTM_SCR_BRK	13000
TTM_SCR_HLD	52000
TTM_SCR_SLD	117000
TTM_SCR_ALL	340000
TTM_SCR_S	329350
TTM_SCR_SS	339500
TTM_RAT_ACV	10014

