VERSION	0.00.00	1.03.00
FES_MODE	0
BPM_DEF	140.000	140.000	140.000	140.000
MET_DEF	4	4
RESOLUTION	384
CLK_DEF	384
COMPATIBLE_CODE	MA2

BPM	0	0	140.000
MET	0	0	4	4

XHO	5	0	2	384
XTP	5	0	5
TAP	5	192	3
HLD	6	0	5	384
TAP	6	192	4
TAP	6	288	3
HLD	7	0	2	384
TAP	7	192	3
HLD	8	0	4	192
TAP	8	192	3
TAP	8	288	1
TAP	8	288	6
TAP	9	0	2
TAP	9	96	1
TAP	9	96	3
TAP	9	192	5
TAP	9	288	4
TAP	9	288	6
TAP	10	0	1
TAP	10	96	0
TAP	10	96	2
TAP	10	192	6
TAP	10	288	5
TAP	10	288	7
XHO	11	0	0	96
XHO	11	0	4	96
XHO	11	192	2	96
XHO	11	192	6	96
XHO	12	0	1	96
XHO	12	0	5	96
BRK	12	192	3
BRK	12	192	7
HLD	13	0	4	96
TAP	13	96	3
HLD	13	192	1	96
STR	13	288	2
SUR	13	288	2	96	240	5
HLD	15	0	3	96
TAP	15	96	4
HLD	15	192	6	96
STR	15	288	5
SUL	15	288	5	96	240	2
XST	17	0	2
SXR	17	0	2	96	288	4
XST	17	0	5
SXL	17	0	5	96	288	3
TTP	18	96	6	E	0	M1
TTP	18	192	0	C	0	M1
TTP	18	288	2	E	0	M1
XST	19	0	0
SXL	19	0	0	96	288	0
XST	19	0	7
SXR	19	0	7	96	288	7
TTP	20	96	3	B	0	M1
TTP	20	96	4	B	0	M1
TTP	20	192	0	C	1	M1
TTP	20	192	1	B	0	M1
TTP	20	192	6	B	0	M1
HLD	21	0	0	96
TAP	21	96	2
HLD	21	192	7	96
STR	21	288	5
SUL	21	288	5	96	240	2
TTP	23	0	1	E	0	M1
TTP	23	96	2	B	0	M1
TTP	23	192	7	E	0	M1
TTP	23	288	5	B	0	M1
TTP	24	0	4	E	0	M1
TTP	24	96	3	E	0	M1
TTP	24	96	5	E	0	M1
TTP	24	192	0	C	1	M1
TTP	24	192	1	B	0	M1
TTP	24	192	6	B	0	M1
TAP	25	0	0
TAP	25	0	1
TAP	25	96	2
TAP	25	192	3
STR	25	288	4
SXL	25	288	4	96	240	0
TAP	27	0	6
TAP	27	0	7
TAP	27	96	5
TAP	27	192	4
STR	27	288	3
SXR	27	288	3	96	240	7
XST	29	0	2
SXR	29	0	2	96	288	4
XST	29	0	5
SXL	29	0	5	96	288	3
TTP	30	96	2	E	0	M1
TTP	30	192	0	C	0	M1
TTP	30	288	6	E	0	M1
XST	31	0	0
SXL	31	0	0	96	288	0
XST	31	0	7
SXR	31	0	7	96	288	7
TTP	32	96	3	B	0	M1
TTP	32	96	4	B	0	M1
TTP	32	192	0	C	1	M1
TTP	32	192	2	E	0	M1
TTP	32	192	6	E	0	M1
TAP	33	0	0
TAP	33	0	1
TAP	33	96	2
TAP	33	96	3
TAP	33	192	4
TAP	33	192	5
STR	33	288	6
SXR	33	288	6	96	288	3
STR	33	288	7
SXL	33	288	7	96	288	2
TAP	35	0	1
TAP	35	48	1
TAP	35	96	0
TAP	35	192	6
TAP	35	240	6
TAP	35	288	7
TAP	36	0	2
TAP	36	48	2
TAP	36	96	3
TAP	36	192	5
TAP	36	240	5
TAP	36	288	4
HLD	37	0	3	96
HLD	37	96	4	96
HLD	37	192	3	96
HLD	37	288	4	96
HLD	38	0	0	96
HLD	38	96	7	96
HLD	38	192	0	96
TAP	38	288	7
TAP	39	0	2
TAP	39	96	3
TAP	39	96	4
TAP	39	192	5
TAP	39	288	3
TAP	39	288	4
TAP	40	0	1
TAP	40	96	3
TAP	40	96	4
TAP	40	192	6
STR	40	288	3
SI_	40	288	3	96	144	0
STR	40	288	4
SI_	40	288	4	96	144	7
HLD	42	0	0	192
HLD	42	0	7	192
TAP	42	288	1
TAP	42	288	6
TTP	43	0	0	B	0	M1
TTP	43	0	1	B	0	M1
TTP	43	96	2	B	0	M1
TTP	43	96	3	B	0	M1
TTP	43	192	4	B	0	M1
TTP	43	192	5	B	0	M1
TTP	43	288	6	B	0	M1
TTP	43	288	7	B	0	M1
TTP	44	0	0	B	0	M1
TTP	44	0	1	B	0	M1
TTP	44	96	2	B	0	M1
TTP	44	96	3	B	0	M1
TTP	44	192	4	B	0	M1
TTP	44	192	5	B	0	M1
TTP	44	288	6	B	0	M1
TTP	44	288	7	B	0	M1
THO	45	0	0	192	C	0	M1
TTP	45	0	1	B	0	M1
TTP	45	0	2	B	0	M1
THO	46	0	0	192	C	0	M1
TTP	46	0	5	B	0	M1
TTP	46	0	6	B	0	M1
TTP	47	0	4	E	0	M1
TTP	47	96	3	E	0	M1
TTP	47	96	5	E	0	M1
THO	47	192	0	192	C	1	M1
TTP	47	192	1	B	0	M1
TTP	47	192	6	B	0	M1
STR	49	0	7
SCL	49	0	7	96	192	3
HLD	50	0	1	96
HLD	50	96	3	96
HLD	50	192	4	96
STR	50	288	6
SSR	50	288	6	96	240	2
HLD	52	0	6	96
HLD	52	96	4	96
HLD	52	192	3	96
STR	52	288	1
SSL	52	288	1	96	240	5
XST	54	0	2
SXR	54	0	2	96	288	4
XST	54	0	5
SXL	54	0	5	96	288	3
TTP	55	96	3	E	0	M1
TTP	55	96	5	E	0	M1
TTP	55	192	0	C	0	M1
TTP	55	288	1	E	0	M1
TTP	55	288	7	E	0	M1
XST	56	0	0
SXL	56	0	0	96	288	0
XST	56	0	7
SXR	56	0	7	96	288	7
TTP	57	96	3	B	0	M1
TTP	57	96	4	B	0	M1
TTP	57	192	0	C	1	M1
TTP	57	192	1	B	0	M1
TTP	57	192	6	B	0	M1
HLD	58	0	0	96
HLD	58	96	2	96
HLD	58	192	4	96
STR	58	288	6
SSR	58	288	6	96	240	2
TAP	60	0	1
TAP	60	48	1
TAP	60	96	0
TAP	60	192	6
TAP	60	240	6
TAP	60	288	7
TAP	61	0	2
TAP	61	48	2
TAP	61	96	3
TAP	61	192	5
TAP	61	240	5
TAP	61	288	4
STR	62	0	0
SI_	62	0	0	96	96	5
STR	62	0	1
SI_	62	0	1	96	96	4
STR	63	0	6
SI_	63	0	6	96	96	3
STR	63	0	7
SI_	63	0	7	96	96	2
STR	64	0	1
SLR	64	0	1	96	192	0
STR	64	0	6
SLL	64	0	6	96	192	7
BRK	65	0	1
BRK	65	0	6

T_REC_TAP	73
T_REC_BRK	4
T_REC_XTP	1
T_REC_HLD	27
T_REC_XHO	7
T_REC_STR	19
T_REC_BST	0
T_REC_XST	12
T_REC_TTP	61
T_REC_THO	3
T_REC_SLD	31
T_REC_ALL	238
T_NUM_TAP	166
T_NUM_BRK	4
T_NUM_HLD	37
T_NUM_SLD	31
T_NUM_ALL	238
T_JUDGE_TAP	170
T_JUDGE_HLD	104
T_JUDGE_SLD	31
T_JUDGE_ALL	305
TTM_EACHPAIRS	32
TTM_SCR_TAP	83000
TTM_SCR_BRK	10400
TTM_SCR_HLD	37000
TTM_SCR_SLD	46500
TTM_SCR_ALL	176900
TTM_SCR_S	171250
TTM_SCR_SS	176500
TTM_RAT_ACV	10022

