VERSION	0.00.00	1.03.00
FES_MODE	0
BPM_DEF	140.000	140.000	140.000	140.000
MET_DEF	4	4
RESOLUTION	384
CLK_DEF	384
COMPATIBLE_CODE	MA2

BPM	0	0	140.000
MET	0	0	4	4

XHO	5	0	5	384
HLD	6	0	4	384
HLD	7	0	3	384
XTP	8	0	2
XTP	8	192	2
HLD	9	0	1	192
TAP	9	192	0
HLD	10	0	7	192
TAP	10	192	0
TAP	11	0	1
TAP	11	0	7
TAP	11	192	0
TAP	11	192	6
XTP	12	0	7
XTP	12	96	7
BRK	12	192	1
BRK	12	192	6
TAP	13	0	6
TAP	13	96	6
TAP	13	192	6
TAP	13	192	7
TAP	14	0	1
TAP	14	96	1
TAP	14	192	0
TAP	14	192	1
TAP	15	0	6
TAP	15	96	6
TAP	15	192	7
TAP	15	288	7
TAP	16	0	0
TAP	16	0	7
TAP	16	96	0
TAP	16	96	7
XTP	16	192	1
XTP	16	192	6
STR	17	0	0
SCR	17	0	0	96	480	6
STR	19	0	7
SCL	19	0	7	96	480	1
TAP	21	0	1
TAP	21	96	1
TAP	21	192	0
TAP	21	192	1
TAP	22	0	6
TAP	22	96	6
TAP	22	192	6
TAP	22	192	7
TAP	23	0	7
TAP	23	96	6
TAP	23	192	5
TAP	23	288	4
TAP	24	0	3
TAP	24	0	4
TAP	24	96	3
TAP	24	96	4
XTP	24	192	2
XTP	24	192	5
TAP	25	0	1
TAP	25	96	1
TAP	25	192	0
TAP	25	192	1
TAP	26	0	6
TAP	26	96	6
TAP	26	192	6
TAP	26	192	7
TAP	27	0	1
TAP	27	96	1
TAP	27	192	0
TAP	27	288	0
TAP	28	0	0
TAP	28	0	7
TAP	28	96	0
TAP	28	96	7
XTP	28	192	1
XTP	28	192	6
STR	29	0	7
SCL	29	0	7	96	480	1
STR	31	0	0
SCR	31	0	0	96	480	6
TAP	33	0	6
TAP	33	96	6
TAP	33	192	6
TAP	33	192	7
TAP	34	0	1
TAP	34	96	1
TAP	34	192	0
TAP	34	192	1
TAP	35	0	7
TAP	35	96	7
TAP	35	192	0
TAP	35	192	7
TAP	35	288	0
TAP	35	288	7
XTP	36	0	1
XTP	36	0	6
TTP	37	0	6	B	0	L1
TTP	37	192	0	C	0	L1
TTP	38	0	2	B	0	L1
TTP	39	0	1	B	0	L1
TTP	39	192	0	C	0	L1
TTP	40	0	5	B	0	L1
TTP	41	0	6	B	0	L1
TTP	41	192	0	C	0	L1
TTP	42	0	2	B	0	L1
TTP	42	192	1	B	0	L1
TTP	43	0	0	C	0	L1
TTP	43	192	5	B	0	L1
TTP	44	0	0	C	1	L1
STR	45	0	0
SI_	45	0	0	96	192	5
STR	45	0	1
SI_	45	0	1	96	192	4
STR	46	0	6
SI_	46	0	6	96	192	3
STR	46	0	7
SI_	46	0	7	96	192	2
TAP	47	0	1
TAP	47	96	1
TAP	47	192	0
TAP	47	288	0
XTP	48	0	0
XTP	48	0	7
XTP	48	96	0
XTP	48	96	7
XHO	48	192	1	192
XHO	48	192	6	192
TAP	50	0	6
TAP	50	96	6
TAP	50	192	6
TAP	50	192	7
TAP	50	288	6
TAP	50	288	7
TAP	51	0	0
TAP	51	96	0
TAP	51	192	1
TAP	51	192	7
TAP	52	0	1
TAP	52	96	1
TAP	52	192	0
TAP	52	288	0
TAP	53	0	6
TAP	53	0	7
TAP	53	96	6
TAP	53	96	7
XTP	53	192	0
XTP	53	192	5
STR	54	0	1
SCL	54	0	1	96	480	3
STR	56	0	2
SCR	56	0	2	96	480	0
TAP	58	0	1
TAP	58	96	1
TAP	58	192	0
TAP	58	192	1
TAP	58	288	0
TAP	58	288	1
TAP	59	0	7
TAP	59	96	7
TAP	59	192	0
TAP	59	192	6
TAP	60	0	0
TAP	60	0	7
TAP	60	96	0
TAP	60	96	7
TAP	60	192	1
TAP	60	192	6
TAP	60	288	1
TAP	60	288	6
BRK	61	0	2
BRK	61	0	5
TTP	62	0	4	E	0	L1
TTP	62	192	3	B	0	L1
TTP	62	192	4	B	0	L1
TTP	63	0	2	B	0	L1
TTP	63	0	5	B	0	L1
TTP	63	192	1	B	0	L1
TTP	63	192	6	B	0	L1
THO	64	0	0	384	C	1	L1

T_REC_TAP	108
T_REC_BRK	4
T_REC_XTP	18
T_REC_HLD	4
T_REC_XHO	3
T_REC_STR	10
T_REC_BST	0
T_REC_XST	0
T_REC_TTP	20
T_REC_THO	1
T_REC_SLD	10
T_REC_ALL	178
T_NUM_TAP	156
T_NUM_BRK	4
T_NUM_HLD	8
T_NUM_SLD	10
T_NUM_ALL	178
T_JUDGE_TAP	160
T_JUDGE_HLD	48
T_JUDGE_SLD	10
T_JUDGE_ALL	218
TTM_EACHPAIRS	42
TTM_SCR_TAP	78000
TTM_SCR_BRK	10400
TTM_SCR_HLD	8000
TTM_SCR_SLD	15000
TTM_SCR_ALL	111400
TTM_SCR_S	107700
TTM_SCR_SS	111000
TTM_RAT_ACV	10036

