VERSION	0.00.00	1.03.00
FES_MODE	0
BPM_DEF	150.000	130.000	150.000	130.000
MET_DEF	4	4
RESOLUTION	384
CLK_DEF	384
COMPATIBLE_CODE	MA2

BPM	0	0	150.000
BPM	21	0	131.000
BPM	22	0	130.000
MET	0	0	4	4

TAP	1	96	2
TAP	1	128	3
TAP	1	160	2
TAP	1	192	5
TAP	1	224	4
TAP	1	256	5
TAP	1	288	1
TAP	1	320	3
TAP	1	352	2
THO	2	0	0	192	C	0	M1
TAP	2	192	0
HLD	3	0	1	192
TTP	3	96	0	C	0	M1
HLD	3	192	6	192
TTP	3	288	0	C	0	M1
STR	4	0	1
SCR	4	0	1	96	96	4
TTP	4	96	0	C	0	M1
STR	4	192	6
SCL	4	192	6	96	96	3
TTP	4	288	0	C	0	M1
HLD	5	0	1	192
TTP	5	96	1	B	0	M1
HLD	5	192	6	192
TTP	5	288	6	B	0	M1
STR	6	0	1
SCR	6	0	1	96	96	4
TTP	6	96	1	B	0	M1
STR	6	192	6
SCL	6	192	6	96	96	3
TTP	6	288	6	B	0	M1
TAP	7	0	1
TAP	7	96	2
TAP	7	128	3
TAP	7	160	2
TAP	7	192	3
TAP	7	288	2
TAP	7	288	3
TAP	8	0	3
TAP	8	0	6
TAP	8	96	5
TAP	8	128	4
TAP	8	160	5
TAP	8	192	4
TAP	8	288	4
TAP	8	288	5
TAP	8	352	1
TAP	9	0	0
TTP	9	96	0	C	0	M1
TTP	9	96	1	E	0	M1
TTP	9	96	5	E	0	M1
TAP	9	160	6
TAP	9	192	7
TTP	9	288	0	C	0	M1
TTP	9	288	3	E	0	M1
TTP	9	288	7	E	0	M1
TAP	9	352	1
TAP	10	0	0
TTP	10	96	0	C	0	M1
TTP	10	96	1	E	0	M1
TTP	10	96	5	E	0	M1
TAP	10	160	6
TAP	10	192	7
TAP	10	256	1
TAP	10	288	0
TAP	10	352	5
HLD	11	0	4	96
TTP	11	96	4	B	0	M1
HLD	11	192	6	192
TAP	11	192	7
TTP	11	288	6	B	0	M1
STR	12	0	7
SI_	12	0	7	96	48	3
TAP	12	64	7
TAP	12	96	6
STR	12	192	6
SI_	12	192	6	96	48	4
TAP	12	256	6
TAP	12	288	7
TAP	12	352	2
HLD	13	0	3	96
TTP	13	96	3	B	0	M1
TAP	13	192	0
HLD	13	192	1	192
TTP	13	288	1	B	0	M1
STR	14	0	0
SI_	14	0	0	96	48	4
TAP	14	64	0
TAP	14	96	1
STR	14	192	1
SI_	14	192	1	96	48	3
TAP	14	256	1
TAP	14	288	0
TAP	15	0	4
TAP	15	0	5
TAP	15	96	6
TAP	15	128	7
TAP	15	160	6
STR	15	192	7
SCR	15	192	7	96	48	2
TAP	15	288	6
TAP	16	0	4
TAP	16	0	5
TAP	16	96	5
TAP	16	128	4
TAP	16	160	5
STR	16	192	4
SCL	16	192	4	96	48	1
TAP	16	288	5
TAP	17	0	6
TAP	17	0	7
TAP	17	96	5
TAP	17	128	4
TAP	17	160	5
TAP	17	192	4
TAP	17	256	4
TAP	17	288	3
TAP	17	352	3
STR	18	0	2
SCL	18	0	2	96	96	7
STR	18	192	5
SCR	18	192	5	96	96	0
TAP	19	0	4
TAP	19	96	2
TAP	19	128	3
TAP	19	160	2
TAP	19	192	3
TAP	19	256	3
TAP	19	288	4
TAP	19	352	4
HLD	20	0	5	192
THO	20	192	0	192	C	1	M1
BRK	21	0	7
TAP	21	288	3
TAP	21	288	4
TAP	22	0	1
TAP	22	0	5
TAP	22	48	1
TAP	22	48	5
TAP	22	96	2
TAP	22	120	3
STR	22	168	4
SF_	22	168	4	96	56	0
BRK	23	0	1
BRK	23	0	6
XTP	23	288	3
XTP	23	288	4
HLD	24	0	6	96
TAP	24	48	4
HLD	24	96	4	96
TAP	24	144	2
HLD	24	192	2	96
TAP	24	240	0
HLD	24	288	0	96
TAP	24	336	7
HLD	25	0	7	96
TAP	25	48	1
HLD	25	96	1	96
TAP	25	144	3
HLD	25	192	3	96
TAP	25	240	5
HLD	25	288	5	96
TAP	25	336	7
HLD	26	0	7	96
TAP	26	48	6
HLD	26	96	5	96
TAP	26	144	4
HLD	26	192	3	96
TAP	26	240	2
HLD	26	288	1	96
TAP	26	336	7
HLD	27	0	0	96
TAP	27	48	1
HLD	27	96	2	96
TAP	27	144	3
TAP	27	192	4
TAP	27	240	5
TAP	27	288	3
TAP	27	288	4
TAP	28	0	5
TAP	28	0	7
TAP	28	48	5
STR	28	48	7
SCR	28	48	7	96	144	5
TAP	28	96	6
TAP	28	144	5
TAP	29	0	0
TAP	29	0	2
STR	29	48	0
SCL	29	48	0	96	144	2
TAP	29	48	2
TAP	29	96	1
TAP	29	144	2
TAP	30	0	0
TAP	30	0	6
STR	30	48	0
SCR	30	48	0	96	144	6
TAP	30	48	6
TAP	30	96	7
TAP	30	144	6
THO	31	0	0	144	C	0	M1
TTP	31	0	2	B	0	M1
TTP	31	0	6	B	0	M1
TAP	31	288	2
TAP	31	320	3
TAP	31	336	2
XTP	32	0	2
XTP	32	0	4
TAP	32	48	2
STR	32	48	4
SCR	32	48	4	96	144	2
TTP	32	96	0	C	0	M1
TTP	32	96	1	B	0	M1
TTP	32	96	5	B	0	M1
HLD	32	144	0	144
TAP	33	0	3
TAP	33	0	5
STR	33	48	3
SCL	33	48	3	96	144	5
TAP	33	48	5
TTP	33	96	0	C	0	M1
TTP	33	96	2	B	0	M1
TTP	33	96	6	B	0	M1
HLD	33	144	7	144
TAP	34	0	0
TAP	34	0	2
STR	34	48	0
SCL	34	48	0	96	144	1
TAP	34	48	2
TTP	34	96	0	C	0	M1
TTP	34	96	3	E	0	M1
TTP	34	96	7	E	0	M1
HLD	34	144	2	144
TAP	35	0	5
TAP	35	0	7
TAP	35	48	5
STR	35	48	7
SCR	35	48	7	96	144	6
TTP	35	96	0	C	0	M1
TTP	35	96	1	E	0	M1
TTP	35	96	5	E	0	M1
HLD	35	144	5	144
HLD	36	0	1	96
TTP	36	48	1	B	0	M1
HLD	36	96	3	48
TTP	36	144	3	B	0	M1
TAP	36	192	1
TAP	36	192	4
TAP	36	240	2
TAP	36	272	3
TAP	36	320	3
TAP	36	336	2
HLD	37	0	6	96
TTP	37	48	6	B	0	M1
HLD	37	96	4	48
TTP	37	144	4	B	0	M1
TAP	37	192	3
TAP	37	192	6
TAP	37	240	5
TAP	37	272	4
TAP	37	320	4
TAP	37	336	5
HLD	38	0	1	96
TTP	38	48	1	B	0	M1
HLD	38	96	5	96
TTP	38	144	5	B	0	M1
HLD	38	192	0	96
TTP	38	240	0	B	0	M1
HLD	38	288	4	96
TTP	38	336	4	B	0	M1
TAP	39	0	7
TAP	39	48	0
TAP	39	48	7
TAP	39	96	1
TAP	39	96	6
TAP	39	144	2
TAP	39	156	3
TAP	39	168	4
TAP	39	180	5
XTP	39	240	7
XTP	39	312	7
HLD	40	0	0	96
TTP	40	48	0	B	0	M1
HLD	40	96	3	48
TTP	40	144	3	B	0	M1
TAP	40	192	1
TAP	40	192	4
TAP	40	240	2
TAP	40	272	3
TAP	40	320	3
TAP	40	336	2
HLD	41	0	7	96
TTP	41	48	7	B	0	M1
HLD	41	96	4	48
TTP	41	144	4	B	0	M1
TAP	41	192	3
TAP	41	192	6
TAP	41	240	5
TAP	41	272	4
TAP	41	320	4
TAP	41	336	5
TAP	42	0	1
TAP	42	0	3
TAP	42	48	2
TAP	42	96	4
TAP	42	96	6
TAP	42	144	5
TAP	42	192	0
TAP	42	192	3
TAP	42	240	2
TAP	42	288	4
TAP	42	288	7
TAP	42	336	5
TAP	42	348	4
TAP	42	360	3
TAP	42	372	2
TAP	43	48	0
TAP	43	96	0
TAP	43	96	1
TAP	43	144	6
TAP	43	144	7
TAP	43	192	5
TAP	43	216	4
TAP	43	264	2
TAP	43	288	3
TAP	43	336	1
TAP	43	336	4
XTP	44	0	2
XTP	44	0	3
STR	44	96	3
SCL	44	96	3	96	48	7
TAP	44	96	5
XTP	44	168	6
STR	44	288	3
SCL	44	288	3	96	96	4
TAP	44	288	5
XHO	44	360	6	120
TAP	45	192	2
TAP	45	216	3
TAP	45	264	6
TAP	45	264	7
TAP	45	312	0
TAP	45	312	5
XTP	46	0	4
XTP	46	0	5
TAP	46	96	2
STR	46	96	4
SCR	46	96	4	96	48	0
XTP	46	168	1
TAP	46	288	2
STR	46	288	4
SCR	46	288	4	96	96	3
XHO	46	360	1	120
TAP	47	192	5
TAP	47	216	4
TAP	47	264	0
TAP	47	264	1
TAP	47	312	2
TAP	47	312	7
XTP	48	0	2
XHO	48	0	3	96
STR	48	96	0
SCL	48	96	0	96	48	5
XTP	48	168	2
STR	48	288	1
SCL	48	288	1	96	96	2
TAP	48	288	3
XHO	48	360	5	120
TAP	49	192	2
TAP	49	216	3
TAP	49	264	6
TAP	49	264	7
TAP	49	312	0
TAP	49	312	5
XHO	50	0	4	96
XTP	50	0	5
STR	50	96	7
SCR	50	96	7	96	48	2
XTP	50	168	5
TAP	50	288	4
STR	50	288	6
SCL	50	288	6	96	48	3
XHO	50	360	2	72
BST	51	96	0
SCR	51	96	0	96	48	3
BRK	51	96	7
BRK	51	192	0
BST	51	192	7
SCL	51	192	7	96	48	4
BRK	51	288	0
BRK	51	288	7
XST	52	0	0
SI_	52	0	0	96	48	5
XTP	52	0	1
TAP	52	48	7
TAP	52	96	0
TAP	52	96	1
TAP	52	144	3
TAP	52	192	0
STR	52	192	1
SI_	52	192	1	96	48	4
TAP	52	240	2
STR	52	288	0
SCL	52	288	0	96	96	3
TAP	52	288	1
XHO	52	360	2	120
TAP	53	192	1
TAP	53	192	4
TAP	53	224	2
TAP	53	240	3
TAP	53	272	5
TAP	53	288	4
TAP	53	320	6
TAP	53	336	7
TAP	54	0	6
STR	54	0	7
SI_	54	0	7	96	48	2
TAP	54	48	0
TAP	54	96	6
TAP	54	96	7
TAP	54	144	4
STR	54	192	6
SI_	54	192	6	96	48	3
TAP	54	192	7
TAP	54	240	5
TAP	54	288	6
STR	54	288	7
SCR	54	288	7	96	96	4
XHO	54	360	5	120
TAP	55	192	3
TAP	55	192	6
TAP	55	224	5
TAP	55	240	4
TAP	55	272	2
TAP	55	288	3
TAP	55	320	0
TAP	55	320	5
XST	56	0	0
SI_	56	0	0	96	48	5
TAP	56	48	6
TAP	56	48	7
TAP	56	96	0
TAP	56	96	1
TAP	56	144	2
STR	56	192	1
SI_	56	192	1	96	48	4
TAP	56	240	2
TAP	56	240	3
STR	56	288	0
SCL	56	288	0	96	96	3
TAP	56	288	1
XHO	56	360	2	120
TAP	57	192	1
TAP	57	192	4
TAP	57	224	2
TAP	57	240	3
TAP	57	272	5
TAP	57	288	4
TAP	57	320	2
TAP	57	320	7
XTP	58	0	2
XHO	58	0	3	96
STR	58	96	0
SCL	58	96	0	96	48	5
XTP	58	168	2
STR	58	288	1
SCR	58	288	1	96	48	4
TAP	58	288	3
XHO	58	360	5	72
BRK	59	96	0
BST	59	96	7
SCL	59	96	7	96	48	4
BST	59	192	0
SCR	59	192	0	96	48	3
BRK	59	192	7
BRK	59	288	0
BRK	59	288	7
HLD	60	0	0	48
TAP	60	0	7
TTP	60	48	0	B	0	M1
HLD	60	96	1	48
TAP	60	96	7
TTP	60	144	1	B	0	M1
TAP	60	192	0
TAP	60	192	7
TAP	60	240	6
TAP	60	288	0
TAP	60	288	7
TAP	60	336	1
TAP	61	0	0
HLD	61	0	7	48
TTP	61	48	7	B	0	M1
TAP	61	96	0
HLD	61	96	6	48
TTP	61	144	6	B	0	M1
TAP	61	192	0
TAP	61	192	7
TAP	61	240	1
TAP	61	288	0
TAP	61	288	7
TAP	61	336	6
HLD	62	0	1	48
TAP	62	0	7
TTP	62	48	1	B	0	M1
HLD	62	96	2	48
TAP	62	96	7
TTP	62	144	2	B	0	M1
TAP	62	192	0
HLD	62	192	6	48
TTP	62	240	6	B	0	M1
TAP	62	288	0
HLD	62	288	5	48
TTP	62	336	5	B	0	M1
STR	63	0	2
SCL	63	0	2	96	96	5
TAP	63	0	3
TAP	63	48	3
TAP	63	288	1
TAP	63	288	6
TAP	63	336	1
TAP	63	336	6
HLD	64	0	0	48
TAP	64	0	7
TTP	64	48	0	B	0	M1
HLD	64	96	1	48
TAP	64	96	7
TTP	64	144	1	B	0	M1
HLD	64	192	2	48
TAP	64	192	7
TTP	64	240	2	B	0	M1
HLD	64	288	3	48
TAP	64	288	7
TTP	64	336	3	B	0	M1
HLD	65	0	4	48
TAP	65	0	7
TTP	65	48	4	B	0	M1
HLD	65	96	5	48
TAP	65	96	7
TTP	65	144	5	B	0	M1
HLD	65	192	6	48
TAP	65	192	7
TTP	65	240	6	B	0	M1
TAP	65	288	0
TAP	65	288	7
TAP	65	336	1
TAP	66	0	0
HLD	66	0	7	48
TTP	66	48	7	B	0	M1
TAP	66	96	0
HLD	66	96	6	48
TTP	66	144	6	B	0	M1
TAP	66	192	0
HLD	66	192	5	48
TTP	66	240	5	B	0	M1
TAP	66	288	0
HLD	66	288	4	48
TTP	66	336	4	B	0	M1
TAP	67	0	0
HLD	67	0	3	48
TTP	67	48	3	B	0	M1
TAP	67	96	0
HLD	67	96	2	48
TTP	67	144	2	B	0	M1
TAP	67	192	1
TAP	67	216	0
TAP	67	264	6
TAP	67	288	7
TAP	67	336	2
TAP	67	336	6
XTP	68	0	2
XHO	68	0	3	96
STR	68	96	0
SCL	68	96	0	96	48	5
XTP	68	168	2
STR	68	288	1
SCL	68	288	1	96	96	2
TAP	68	288	3
XHO	68	360	5	120
TAP	69	192	2
TAP	69	216	3
TAP	69	264	6
TAP	69	264	7
TAP	69	312	0
TAP	69	312	5
XHO	70	0	4	96
XTP	70	0	5
STR	70	96	7
SCR	70	96	7	96	48	2
XTP	70	168	5
TAP	70	288	4
STR	70	288	6
SCR	70	288	6	96	96	5
XHO	70	360	2	120
TAP	71	192	5
TAP	71	216	4
TAP	71	264	0
TAP	71	264	1
TAP	71	312	2
TAP	71	312	7
XST	72	0	7
SI_	72	0	7	96	48	2
TAP	72	48	0
TAP	72	48	1
TAP	72	96	6
TAP	72	96	7
TAP	72	144	5
STR	72	192	6
SI_	72	192	6	96	48	3
TAP	72	240	4
TAP	72	240	5
TAP	72	288	6
STR	72	288	7
SCR	72	288	7	96	96	4
XHO	72	360	5	120
TAP	73	192	3
TAP	73	192	6
TAP	73	224	5
TAP	73	240	4
TAP	73	272	2
TAP	73	288	3
TAP	73	320	0
TAP	73	320	5
XST	74	0	0
SI_	74	0	0	96	48	5
XTP	74	0	7
XTP	74	96	0
XST	74	96	7
SI_	74	96	7	96	48	2
XST	74	192	0
SI_	74	192	0	96	48	5
XTP	74	192	7
XTP	74	288	0
XTP	74	288	7
BRK	75	0	0
BRK	75	0	7
BRK	75	24	0
BRK	75	24	7
BRK	75	72	4
BRK	75	72	5
BRK	75	120	1
BRK	75	120	2
BRK	75	168	7
TAP	75	192	0
TAP	75	204	1
TAP	75	216	2
TAP	75	228	3
TAP	75	240	4
TAP	75	252	5
TAP	75	264	6
TAP	75	276	7
XHO	75	288	0	384
XHO	75	288	4	384

T_REC_TAP	347
T_REC_BRK	20
T_REC_XTP	28
T_REC_HLD	60
T_REC_XHO	18
T_REC_STR	44
T_REC_BST	4
T_REC_XST	6
T_REC_TTP	68
T_REC_THO	3
T_REC_SLD	54
T_REC_ALL	652
T_NUM_TAP	493
T_NUM_BRK	24
T_NUM_HLD	81
T_NUM_SLD	54
T_NUM_ALL	652
T_JUDGE_TAP	517
T_JUDGE_HLD	181
T_JUDGE_SLD	54
T_JUDGE_ALL	752
TTM_EACHPAIRS	135
TTM_SCR_TAP	246500
TTM_SCR_BRK	62400
TTM_SCR_HLD	81000
TTM_SCR_SLD	81000
TTM_SCR_ALL	470900
TTM_SCR_S	454450
TTM_SCR_SS	468500
TTM_RAT_ACV	10051

