VERSION	0.00.00	1.03.00
FES_MODE	0
BPM_DEF	150.000	130.000	150.000	130.000
MET_DEF	4	4
RESOLUTION	384
CLK_DEF	384
COMPATIBLE_CODE	MA2

BPM	0	0	150.000
BPM	21	0	131.000
BPM	22	0	130.000
MET	0	0	4	4

TTP	1	96	4	E	0	M1
TTP	1	192	3	E	0	M1
TTP	1	192	5	E	0	M1
TTP	1	288	2	E	0	M1
TTP	1	288	6	E	0	M1
TTP	2	0	0	C	0	M1
XTP	2	192	0
XTP	2	192	7
TAP	3	0	6
TAP	3	96	4
TAP	3	96	5
TAP	3	192	3
TAP	3	288	2
HLD	4	0	1	96
HLD	4	0	3	96
TAP	4	192	0
TAP	4	192	4
TAP	4	288	0
TAP	4	288	4
TAP	5	0	1
TAP	5	96	2
TAP	5	96	3
TAP	5	192	4
TAP	5	288	5
HLD	6	0	4	96
HLD	6	0	6	96
TAP	6	192	3
TAP	6	192	7
TAP	7	0	3
TAP	7	0	5
TAP	7	96	2
TAP	7	192	1
TAP	7	192	3
TAP	7	288	1
TAP	8	0	2
TAP	8	0	4
TAP	8	96	5
TAP	8	192	4
TAP	8	192	6
TAP	8	288	6
STR	9	0	7
SCL	9	0	7	96	96	4
STR	9	192	0
SCR	9	192	0	96	96	3
TAP	10	0	7
TAP	10	96	7
TAP	10	192	2
TAP	10	192	6
TAP	11	0	1
TAP	11	96	2
TAP	11	96	3
TAP	11	192	4
TAP	11	288	5
HLD	12	0	4	96
HLD	12	0	6	96
TAP	12	192	3
TAP	12	192	7
TAP	12	288	3
TAP	12	288	7
TAP	13	0	6
TAP	13	96	4
TAP	13	96	5
TAP	13	192	3
TAP	13	288	2
HLD	14	0	1	96
HLD	14	0	3	96
TAP	14	192	0
TAP	14	192	4
TAP	15	0	2
TAP	15	0	4
TAP	15	96	5
TAP	15	192	4
TAP	15	192	6
TAP	15	288	6
TAP	16	0	3
TAP	16	0	5
TAP	16	96	2
TAP	16	192	1
TAP	16	192	3
TAP	16	288	1
STR	17	0	0
SCR	17	0	0	96	96	3
STR	17	192	7
SCL	17	192	7	96	96	4
TAP	18	0	0
TAP	18	96	0
TAP	18	192	1
TAP	18	192	5
TAP	19	0	2
TAP	19	0	6
TAP	19	96	3
TAP	19	192	1
TAP	19	192	5
TAP	19	288	4
TTP	20	0	0	E	0	M1
TTP	20	192	4	E	0	M1
TTP	21	0	0	C	1	M1
TTP	21	0	1	B	0	M1
TTP	21	0	2	B	0	M1
TTP	21	0	5	B	0	M1
TTP	21	0	6	B	0	M1
XTP	22	0	0
XTP	22	0	7
XTP	22	48	0
XTP	22	48	7
XTP	22	96	0
XTP	22	96	7
XTP	22	168	1
XTP	22	168	6
XHO	22	240	2	96
XHO	22	240	5	96
BRK	23	0	0
TTP	24	0	4	B	0	M1
TTP	24	0	6	B	0	M1
TTP	24	96	1	B	0	M1
TTP	24	96	3	B	0	M1
TTP	24	192	7	B	0	M1
TTP	24	192	7	E	0	M1
TTP	24	288	0	B	0	M1
TTP	24	288	1	E	0	M1
TTP	25	0	3	B	0	M1
TTP	25	0	5	B	0	M1
TTP	25	96	2	B	0	M1
TTP	25	96	4	B	0	M1
TTP	25	192	6	B	0	M1
TTP	25	192	6	E	0	M1
TTP	25	288	1	B	0	M1
TTP	25	288	2	E	0	M1
TTP	26	0	5	B	0	M1
TTP	26	0	7	B	0	M1
TTP	26	96	0	B	0	M1
TTP	26	96	2	B	0	M1
TTP	26	192	4	B	0	M1
TTP	26	192	5	E	0	M1
TTP	26	288	3	B	0	M1
TTP	26	288	3	E	0	M1
TTP	27	0	0	E	0	M1
TTP	27	96	0	C	0	M1
TTP	27	192	4	E	0	M1
TAP	28	0	5
TAP	28	48	5
TAP	28	96	4
HLD	28	144	3	96
HLD	28	144	6	96
TAP	28	288	3
TAP	28	288	6
TAP	29	0	2
TAP	29	48	2
TAP	29	96	3
HLD	29	144	1	96
HLD	29	144	4	96
TAP	29	288	1
TAP	29	288	4
TAP	30	0	5
TAP	30	48	5
TAP	30	96	4
HLD	30	144	3	96
HLD	30	144	6	96
TAP	30	288	3
TAP	30	288	6
HLD	31	0	0	240
HLD	31	0	5	240
TAP	31	288	0
TAP	31	288	5
TAP	32	0	2
TAP	32	48	2
TAP	32	96	3
TAP	32	144	1
TAP	32	144	4
TAP	32	240	5
TAP	32	288	4
TAP	32	288	6
TAP	33	0	5
TAP	33	48	5
TAP	33	96	4
TAP	33	144	3
TAP	33	144	6
TAP	33	240	2
TAP	33	288	1
TAP	33	288	3
TAP	34	0	2
TAP	34	48	2
TAP	34	96	3
TAP	34	144	1
TAP	34	144	4
TAP	34	240	5
TAP	34	288	4
TAP	34	288	6
TAP	35	0	5
TAP	35	48	5
TAP	35	96	4
TAP	35	144	3
TAP	35	144	6
BRK	35	240	7
BRK	35	288	7
TAP	36	0	4
TAP	36	0	6
TAP	36	48	3
TAP	36	96	2
HLD	36	144	2	96
TAP	36	240	3
TAP	36	288	2
TAP	37	0	1
TAP	37	0	3
TAP	37	48	4
TAP	37	96	5
HLD	37	144	5	96
TAP	37	240	4
TAP	37	288	5
HLD	38	0	2	96
HLD	38	96	0	96
HLD	38	192	7	96
HLD	38	288	5	96
TAP	39	0	4
STR	39	48	4
SCL	39	48	4	96	144	0
TAP	40	0	1
TAP	40	0	3
TAP	40	48	4
TAP	40	96	5
HLD	40	144	5	96
TAP	40	240	4
TAP	40	288	5
TAP	41	0	4
TAP	41	0	6
TAP	41	48	3
TAP	41	96	2
HLD	41	144	2	96
TAP	41	240	3
TAP	41	288	2
HLD	42	0	5	96
HLD	42	96	7	96
HLD	42	192	0	96
HLD	42	288	2	96
STR	43	0	3
SCR	43	0	3	96	144	7
TAP	44	0	1
TAP	44	0	7
HLD	44	96	0	48
HLD	44	96	6	48
TAP	44	168	0
TAP	44	168	6
STR	44	288	4
SI_	44	288	4	96	48	1
STR	44	288	5
SI_	44	288	5	96	48	0
TAP	45	192	2
TAP	45	216	3
XTP	45	264	1
XTP	45	264	4
XTP	45	312	1
XTP	45	312	4
TAP	46	0	0
TAP	46	0	6
HLD	46	96	1	48
HLD	46	96	7	48
TAP	46	168	1
TAP	46	168	7
STR	46	288	2
SI_	46	288	2	96	48	7
STR	46	288	3
SI_	46	288	3	96	48	6
TAP	47	192	5
TAP	47	216	4
XTP	47	264	3
XTP	47	264	6
XTP	47	312	3
XTP	47	312	6
TAP	48	0	1
TAP	48	0	7
HLD	48	96	0	48
HLD	48	96	6	48
TAP	48	168	0
TAP	48	168	6
STR	48	288	4
SI_	48	288	4	96	48	1
STR	48	288	5
SI_	48	288	5	96	48	0
TAP	49	192	2
TAP	49	216	3
XTP	49	264	1
XTP	49	264	4
XTP	49	312	1
XTP	49	312	4
TAP	50	0	0
TAP	50	0	6
HLD	50	96	1	48
HLD	50	96	7	48
TAP	50	168	1
TAP	50	168	7
STR	50	288	2
SI_	50	288	2	96	48	7
STR	50	288	3
SI_	50	288	3	96	48	6
XTP	51	96	0
TAP	51	192	0
TAP	51	192	7
BRK	51	288	2
BRK	51	288	5
TAP	52	0	1
TAP	52	0	7
TAP	52	48	6
TAP	52	96	4
TAP	52	96	5
TAP	52	144	3
TAP	52	192	2
TAP	52	192	7
TAP	52	240	6
STR	52	288	4
SI_	52	288	4	96	48	1
STR	52	288	5
SI_	52	288	5	96	48	0
TAP	53	192	2
TAP	53	216	3
XTP	53	264	1
XTP	53	264	4
XTP	53	312	1
XTP	53	312	4
TAP	54	0	0
TAP	54	0	6
TAP	54	48	1
TAP	54	96	2
TAP	54	96	3
TAP	54	144	4
TAP	54	192	0
TAP	54	192	5
TAP	54	240	1
STR	54	288	2
SI_	54	288	2	96	48	7
STR	54	288	3
SI_	54	288	3	96	48	6
TAP	55	192	5
TAP	55	216	4
XTP	55	264	3
XTP	55	264	6
XTP	55	312	3
XTP	55	312	6
TAP	56	0	1
TAP	56	0	7
TAP	56	48	6
TAP	56	96	4
TAP	56	96	5
TAP	56	144	3
TAP	56	192	2
TAP	56	192	7
TAP	56	240	6
STR	56	288	4
SI_	56	288	4	96	48	1
STR	56	288	5
SI_	56	288	5	96	48	0
TAP	57	192	2
TAP	57	216	3
XTP	57	264	1
XTP	57	264	4
XTP	57	312	1
XTP	57	312	4
TAP	58	0	0
TAP	58	0	6
HLD	58	96	1	48
HLD	58	96	5	48
TAP	58	168	1
TAP	58	168	5
XTP	58	288	0
XTP	58	288	7
XTP	58	360	0
XTP	58	360	7
XTP	59	96	3
XTP	59	96	4
TAP	59	192	0
TAP	59	192	7
BRK	59	288	1
BRK	59	288	6
TAP	60	0	5
TAP	60	48	5
TAP	60	96	4
HLD	60	144	6	96
TAP	60	240	0
TAP	60	288	0
TAP	61	0	2
TAP	61	48	2
TAP	61	96	3
HLD	61	144	1	96
TAP	61	240	7
TAP	61	288	7
TAP	61	336	0
TAP	62	0	0
TAP	62	96	1
TAP	62	96	2
TAP	62	192	3
TAP	62	192	4
TAP	62	288	5
TAP	62	288	6
STR	63	0	0
SCR	63	0	0	96	96	3
TAP	63	0	7
STR	63	192	7
SCL	63	192	7	96	96	4
TAP	64	0	2
TAP	64	48	2
TAP	64	96	3
HLD	64	144	1	96
TAP	64	240	7
TAP	64	288	7
TAP	65	0	5
TAP	65	48	5
TAP	65	96	4
HLD	65	144	6	96
TAP	65	240	0
TAP	65	288	0
TAP	65	336	7
STR	66	0	7
SCL	66	0	7	96	192	2
THO	67	0	0	192	C	1	M1
TAP	68	0	0
TAP	68	0	7
TAP	68	96	0
TAP	68	96	7
TAP	68	168	1
TAP	68	168	6
TAP	68	288	4
TAP	68	288	5
TAP	68	360	3
STR	68	360	6
SI_	68	360	6	96	96	2
TAP	69	192	0
TAP	69	216	0
TAP	69	264	1
TAP	69	264	5
TAP	70	0	0
TAP	70	0	7
TAP	70	96	0
TAP	70	96	7
TAP	70	168	1
TAP	70	168	6
TAP	70	288	2
TAP	70	288	3
STR	70	360	1
SI_	70	360	1	96	96	5
TAP	70	360	4
TAP	71	192	7
TAP	71	216	7
TAP	71	264	2
TAP	71	264	6
TAP	72	0	0
TAP	72	0	7
TAP	72	48	1
TAP	72	96	2
TAP	72	96	3
TAP	72	144	4
TAP	72	192	0
TAP	72	192	5
TAP	72	240	1
XTP	72	288	2
XTP	72	288	4
XHO	72	360	1	120
XTP	72	360	5
TAP	73	48	4
TAP	73	96	4
TAP	73	192	6
TAP	73	216	7
XTP	73	264	0
XTP	73	264	5
XTP	73	312	0
XTP	73	312	5
BRK	74	0	2
BRK	74	0	3
BRK	74	96	4
BRK	74	96	5
BRK	74	192	6
BRK	74	192	7
BRK	74	288	0
BRK	74	288	1
TAP	75	0	2
TAP	75	24	3
XTP	75	72	1
XTP	75	72	4
XTP	75	120	2
XTP	75	120	5
XTP	75	168	3
XTP	75	168	6
TTP	75	288	0	C	1	M1
TTP	75	288	1	B	0	M1
TTP	75	288	5	B	0	M1

T_REC_TAP	275
T_REC_BRK	15
T_REC_XTP	54
T_REC_HLD	42
T_REC_XHO	3
T_REC_STR	25
T_REC_BST	0
T_REC_XST	0
T_REC_TTP	43
T_REC_THO	1
T_REC_SLD	25
T_REC_ALL	483
T_NUM_TAP	397
T_NUM_BRK	15
T_NUM_HLD	46
T_NUM_SLD	25
T_NUM_ALL	483
T_JUDGE_TAP	412
T_JUDGE_HLD	91
T_JUDGE_SLD	25
T_JUDGE_ALL	528
TTM_EACHPAIRS	131
TTM_SCR_TAP	198500
TTM_SCR_BRK	39000
TTM_SCR_HLD	46000
TTM_SCR_SLD	37500
TTM_SCR_ALL	321000
TTM_SCR_S	309950
TTM_SCR_SS	319500
TTM_RAT_ACV	10046

