VERSION	0.00.00	1.03.00
FES_MODE	0
BPM_DEF	150.000	130.000	150.000	130.000
MET_DEF	4	4
RESOLUTION	384
CLK_DEF	384
COMPATIBLE_CODE	MA2

BPM	0	0	150.000
BPM	21	0	131.000
BPM	22	0	130.000
MET	0	0	4	4

THO	1	0	0	384	C	0	L1
TTP	3	0	2	B	0	L1
TTP	3	192	3	B	0	L1
TTP	4	0	4	B	0	L1
TTP	5	0	5	B	0	L1
TTP	5	192	4	B	0	L1
TTP	6	0	3	B	0	L1
TTP	7	0	3	E	0	L1
TTP	7	192	1	B	0	L1
TTP	7	192	2	E	0	L1
TTP	8	0	5	E	0	L1
TTP	8	192	6	B	0	L1
TTP	8	192	6	E	0	L1
TTP	9	0	4	E	0	L1
TTP	9	192	0	C	0	L1
TTP	10	0	0	E	0	L1
TTP	10	192	1	B	0	L1
TTP	10	192	6	B	0	L1
HLD	11	0	5	192
TAP	11	96	4
TAP	11	192	4
HLD	12	0	2	192
TAP	12	96	3
TAP	12	192	3
HLD	13	0	5	192
TAP	13	96	4
TAP	13	192	3
HLD	14	0	2	192
TAP	14	96	3
TAP	14	192	4
HLD	15	0	5	192
HLD	15	192	4	192
TAP	16	0	3
TAP	16	192	2
HLD	17	0	1	192
HLD	17	192	2	192
TAP	18	0	3
TAP	18	192	4
HLD	19	0	4	96
HLD	19	0	5	96
HLD	19	192	2	96
HLD	19	192	3	96
TAP	20	0	3
TAP	20	0	4
THO	20	192	0	192	C	1	L1
XTP	22	0	7
XTP	22	48	7
XHO	22	96	7	72
XTP	22	240	0
XTP	22	240	6
TTP	23	0	0	C	1	L1
TAP	24	0	2
TAP	24	96	2
TAP	24	192	3
TAP	24	288	3
TAP	25	0	4
TAP	25	96	4
TAP	25	192	5
TAP	25	288	5
TAP	26	0	6
TAP	26	96	6
TAP	26	192	7
TAP	26	288	7
TAP	27	0	0
TAP	27	0	7
TAP	27	96	0
TAP	27	96	7
XTP	27	192	1
XTP	27	192	6
TAP	28	0	2
TAP	28	96	2
TAP	28	192	2
TAP	28	192	3
TAP	29	0	5
TAP	29	96	5
TAP	29	192	4
TAP	29	192	5
TAP	30	0	6
TAP	30	96	6
TAP	30	192	7
TAP	30	288	7
TAP	31	0	0
TAP	31	0	7
XTP	31	192	1
XTP	31	192	6
TAP	32	0	6
TAP	32	96	6
TAP	32	192	6
TAP	32	192	7
TAP	33	0	1
TAP	33	96	1
TAP	33	192	0
TAP	33	192	1
TAP	34	0	2
TAP	34	96	2
TAP	34	192	3
TAP	34	288	3
HLD	35	0	3	96
HLD	35	0	4	96
XTP	35	192	2
XTP	35	192	5
TTP	36	0	3	B	0	L1
TTP	36	192	1	B	0	L1
TTP	36	192	2	B	0	L1
TTP	37	0	4	B	0	L1
TTP	37	192	5	B	0	L1
TTP	37	192	6	B	0	L1
TTP	38	0	4	E	0	L1
TTP	38	192	3	E	0	L1
TTP	38	192	5	E	0	L1
TTP	39	0	0	C	0	L1
TTP	39	192	1	B	0	L1
TTP	39	192	6	B	0	L1
TTP	40	0	2	E	0	L1
TTP	40	96	2	B	0	L1
TTP	40	192	3	B	0	L1
TTP	41	0	6	E	0	L1
TTP	41	96	5	B	0	L1
TTP	41	192	4	B	0	L1
TTP	42	0	2	B	0	L1
TTP	42	0	3	B	0	L1
TTP	42	192	4	B	0	L1
TTP	42	192	5	B	0	L1
THO	43	0	0	192	C	0	L1
XST	44	0	0
SUL	44	0	0	96	288	5
TAP	45	192	6
TAP	45	288	6
STR	46	0	7
SUR	46	0	7	96	288	2
XTP	47	192	1
XTP	47	192	3
STR	48	0	4
SUL	48	0	4	96	288	1
TAP	49	192	0
TAP	49	288	0
STR	50	0	1
SLR	50	0	1	96	288	0
STR	50	0	6
SLL	50	0	6	96	288	7
XTP	51	192	1
XTP	51	192	6
BRK	51	288	1
BRK	51	288	6
TAP	52	0	2
TAP	52	48	2
TAP	52	96	3
TAP	52	192	5
TAP	52	240	5
TAP	52	288	4
TAP	53	0	3
TAP	53	0	6
TAP	53	96	7
TAP	53	192	0
TAP	53	288	0
TAP	53	288	7
TAP	54	0	1
TAP	54	48	1
TAP	54	96	0
TAP	54	192	6
TAP	54	240	6
TAP	54	288	7
TAP	55	0	0
TAP	55	0	7
TAP	55	96	1
TAP	55	96	6
TAP	55	192	2
TAP	55	192	5
TAP	55	288	3
TAP	55	288	4
TAP	56	0	2
TAP	56	48	2
TAP	56	96	3
TAP	56	192	5
TAP	56	240	5
TAP	56	288	4
TAP	57	0	3
TAP	57	0	6
TAP	57	96	3
TAP	57	96	6
TAP	57	192	2
TAP	57	192	5
TAP	57	288	1
TAP	57	288	4
THO	58	0	0	360	C	1	L1
XTP	59	192	0
XTP	59	192	7
XTP	59	288	0
XTP	59	288	7
HLD	60	0	1	192
HLD	60	192	2	192
TAP	61	0	3
TAP	61	192	3
TAP	61	192	4
HLD	62	0	6	192
HLD	62	192	5	192
TAP	63	0	4
TAP	63	192	3
TAP	63	192	6
HLD	64	0	2	96
HLD	64	0	3	96
TAP	64	192	2
TAP	64	192	3
HLD	65	0	4	96
HLD	65	0	5	96
TAP	65	192	4
TAP	65	192	5
HLD	66	0	6	192
HLD	66	192	7	192
HLD	67	0	0	192
TAP	67	192	1
XST	68	0	7
SXR	68	0	7	96	288	2
TAP	69	192	1
TAP	69	288	1
STR	70	0	0
SXL	70	0	0	96	288	5
XTP	71	192	4
XTP	71	192	6
TAP	72	0	2
TAP	72	48	2
TAP	72	96	1
TAP	72	96	3
TAP	72	192	5
TAP	72	240	5
TAP	72	288	4
TAP	72	288	6
TAP	73	0	0
TAP	73	0	7
TAP	73	96	1
TAP	73	96	6
TAP	73	192	2
TAP	73	192	5
XTP	73	288	3
XTP	73	288	4
HLD	74	0	1	96
HLD	74	0	3	96
HLD	74	192	4	96
HLD	74	192	6	96
THO	75	0	0	288	C	1	L1

T_REC_TAP	127
T_REC_BRK	2
T_REC_XTP	22
T_REC_HLD	29
T_REC_XHO	1
T_REC_STR	5
T_REC_BST	0
T_REC_XST	2
T_REC_TTP	40
T_REC_THO	5
T_REC_SLD	7
T_REC_ALL	240
T_NUM_TAP	196
T_NUM_BRK	2
T_NUM_HLD	35
T_NUM_SLD	7
T_NUM_ALL	240
T_JUDGE_TAP	198
T_JUDGE_HLD	120
T_JUDGE_SLD	7
T_JUDGE_ALL	325
TTM_EACHPAIRS	46
TTM_SCR_TAP	98000
TTM_SCR_BRK	5200
TTM_SCR_HLD	35000
TTM_SCR_SLD	10500
TTM_SCR_ALL	148700
TTM_SCR_S	144050
TTM_SCR_SS	148500
TTM_RAT_ACV	10013

