VERSION	0.00.00	1.03.00
FES_MODE	0
BPM_DEF	150.000	130.000	150.000	130.000
MET_DEF	4	4
RESOLUTION	384
CLK_DEF	384
COMPATIBLE_CODE	MA2

BPM	0	0	150.000
BPM	21	0	131.000
BPM	22	0	130.000
MET	0	0	4	4

TAP	3	0	0
TAP	4	0	0
TAP	5	0	1
TAP	6	0	1
TAP	7	0	2
TAP	8	0	2
TAP	9	0	3
TAP	10	0	3
TAP	11	0	4
TAP	12	0	4
TAP	13	0	5
TAP	14	0	5
TAP	15	0	6
TAP	16	0	6
TAP	17	0	7
TAP	18	0	7
HLD	19	0	0	384
XTP	21	0	0
XTP	21	0	7
HLD	22	0	0	240
HLD	22	0	7	240
BRK	23	0	0
BRK	23	0	7
TAP	24	0	7
TAP	24	96	7
TAP	24	192	7
TAP	25	0	6
TAP	25	96	6
TAP	25	192	6
TAP	26	0	5
TAP	26	96	5
TAP	26	192	5
TAP	27	0	4
TAP	27	96	4
TAP	27	192	4
TAP	28	0	3
TAP	28	96	3
TAP	28	192	3
TAP	29	0	2
TAP	29	96	2
TAP	29	192	2
TAP	30	0	1
TAP	30	96	1
TAP	30	192	1
XTP	31	0	0
XTP	31	0	7
HLD	32	0	7	192
HLD	33	0	6	192
HLD	34	0	5	192
TAP	35	0	4
TAP	35	96	4
TAP	35	192	3
TAP	35	192	4
STR	36	0	3
SI_	36	0	3	96	288	0
STR	38	0	4
SI_	38	0	4	96	288	7
TAP	40	0	0
TAP	40	192	0
TAP	41	0	1
TAP	41	192	1
TAP	42	0	2
TAP	42	192	2
XTP	43	0	3
XTP	43	0	4
TTP	44	0	4	B	0	L1
TTP	45	0	4	E	0	L1
TTP	45	0	5	B	0	L1
TTP	46	0	3	B	0	L1
TTP	47	0	2	B	0	L1
TTP	47	0	4	E	0	L1
TTP	48	0	3	B	0	L1
TTP	48	0	4	B	0	L1
TTP	49	0	2	B	0	L1
TTP	49	0	5	B	0	L1
THO	50	0	0	360	C	1	L1
TAP	52	0	0
TAP	52	96	0
TAP	52	192	0
TAP	53	0	1
TAP	53	96	1
TAP	53	192	0
TAP	53	192	1
TAP	54	0	2
TAP	54	96	2
TAP	54	192	2
TAP	55	0	3
TAP	55	96	4
TAP	55	192	3
TAP	56	0	4
TAP	56	96	4
TAP	56	192	4
TAP	57	0	5
TAP	57	96	5
TAP	57	192	4
TAP	57	192	5
TAP	58	0	6
TAP	58	96	6
TAP	58	192	6
TAP	59	0	7
TAP	59	96	0
BRK	59	192	7
STR	60	0	7
SI_	60	0	7	96	288	3
STR	62	0	0
SI_	62	0	0	96	288	4
STR	64	0	6
SI_	64	0	6	96	288	2
STR	66	0	1
SI_	66	0	1	96	288	5
HLD	68	0	6	360
HLD	68	0	7	360
HLD	70	0	0	360
HLD	70	0	1	360
TAP	72	0	7
TAP	72	96	7
TAP	72	192	6
TAP	72	288	6
TAP	73	0	5
TAP	73	96	5
TAP	73	192	4
TAP	73	192	6
TAP	74	0	3
TAP	74	96	3
TAP	74	192	4
TAP	74	288	4
HLD	75	0	3	192
HLD	75	0	4	192
BRK	75	288	2
BRK	75	288	5

T_REC_TAP	84
T_REC_BRK	5
T_REC_XTP	6
T_REC_HLD	12
T_REC_XHO	0
T_REC_STR	6
T_REC_BST	0
T_REC_XST	0
T_REC_TTP	10
T_REC_THO	1
T_REC_SLD	6
T_REC_ALL	130
T_NUM_TAP	106
T_NUM_BRK	5
T_NUM_HLD	13
T_NUM_SLD	6
T_NUM_ALL	130
T_JUDGE_TAP	111
T_JUDGE_HLD	78
T_JUDGE_SLD	6
T_JUDGE_ALL	195
TTM_EACHPAIRS	13
TTM_SCR_TAP	53000
TTM_SCR_BRK	13000
TTM_SCR_HLD	13000
TTM_SCR_SLD	9000
TTM_SCR_ALL	88000
TTM_SCR_S	84900
TTM_SCR_SS	87500
TTM_RAT_ACV	10057

