VERSION	0.00.00	1.03.00
FES_MODE	0
BPM_DEF	160.000	160.000	160.000	160.000
MET_DEF	4	4
RESOLUTION	384
CLK_DEF	384
COMPATIBLE_CODE	MA2

BPM	0	0	160.000
MET	0	0	4	4

XHO	1	0	1	96
XHO	1	0	4	96
XHO	1	192	4	96
XHO	1	192	6	96
XST	1	336	4
SI_	1	336	4	96	48	2
XTP	1	336	6
XTP	2	48	5
XTP	2	144	4
XTP	2	192	1
XTP	2	192	4
TTP	2	288	0	C	0	M1
XHO	3	0	3	96
XHO	3	0	6	96
XHO	3	192	1	96
XHO	3	192	3	96
XTP	3	336	1
XST	3	336	3
SI_	3	336	3	96	48	5
XTP	4	48	2
XTP	4	144	3
XTP	4	192	3
XTP	4	192	6
BRK	4	288	0
STR	5	0	1
SI_	5	0	1	96	48	5
TAP	5	96	5
TAP	5	192	7
TAP	5	288	0
TAP	5	288	6
TAP	5	336	1
HLD	5	336	5	96
TAP	6	48	4
TAP	6	96	3
TAP	6	144	2
TAP	6	144	4
TAP	6	192	3
TAP	6	240	4
TAP	6	288	3
TAP	6	288	5
TAP	6	336	6
TAP	7	0	0
TAP	7	48	0
TAP	7	96	0
TAP	7	96	7
TAP	7	144	1
TAP	7	168	6
TAP	7	192	2
TAP	7	216	5
TAP	7	240	3
TAP	7	264	4
TAP	7	288	3
TAP	7	336	3
TAP	7	336	4
TAP	8	48	6
TAP	8	96	4
TAP	8	96	6
TAP	8	144	1
TAP	8	192	1
STR	8	192	3
SI_	8	192	3	96	48	7
BRK	8	288	0
STR	9	0	1
SI_	9	0	1	96	48	5
STR	9	96	5
SI_	9	96	5	96	48	1
TAP	9	192	7
TAP	9	288	0
TAP	9	288	6
TAP	9	336	1
HLD	9	336	5	96
TAP	10	48	4
TAP	10	96	2
TAP	10	144	2
TAP	10	144	3
TAP	10	192	5
TAP	10	240	4
TAP	10	240	5
TAP	10	288	6
TAP	10	336	0
TAP	10	336	7
TAP	11	0	1
STR	11	0	6
SI_	11	0	6	96	48	2
STR	11	96	2
SI_	11	96	2	96	48	6
TAP	11	192	0
TAP	11	288	1
TAP	11	288	7
XTP	11	336	2
STR	11	336	6
SCL	11	336	6	96	96	3
TAP	12	48	3
TAP	12	96	2
TAP	12	144	1
XTP	12	192	0
XTP	12	192	1
BRK	12	240	7
BRK	12	288	7
STR	13	0	0
SI_	13	0	0	96	48	4
STR	13	0	6
SI_	13	0	6	96	48	3
XTP	13	192	1
XTP	13	192	5
TAP	13	288	3
HLD	13	336	2	96
TAP	13	336	6
TAP	14	48	4
TAP	14	96	1
TAP	14	144	0
TAP	14	144	1
TAP	14	192	6
TAP	14	240	6
TAP	14	240	7
TAP	14	288	5
TAP	14	336	3
TAP	14	336	4
STR	15	0	2
SI_	15	0	2	96	48	6
TAP	15	96	2
TAP	15	96	6
STR	15	192	0
SCR	15	192	0	96	48	3
TAP	15	192	4
TAP	15	288	5
HLD	15	336	6	96
TAP	16	48	4
TAP	16	96	3
TAP	16	96	5
TAP	16	144	2
TAP	16	144	4
TAP	16	192	1
TAP	16	192	3
BRK	16	288	7
TTP	17	0	0	E	0	M1
XTP	17	0	1
TTP	17	192	4	E	0	M1
XTP	17	192	6
XTP	18	0	2
TTP	18	0	6	B	0	M1
TTP	18	0	7	E	0	M1
TTP	18	96	1	B	0	M1
TTP	18	96	2	B	0	M1
XTP	18	96	5
XTP	18	192	3
TTP	18	192	5	B	0	M1
TTP	18	192	5	E	0	M1
TTP	18	288	0	C	0	M1
TAP	19	0	0
HLD	19	0	6	96
HLD	19	96	4	96
HLD	19	192	3	96
TAP	19	288	2
STR	19	336	1
SI_	19	336	1	96	48	4
TAP	20	48	4
STR	20	96	5
SCR	20	96	5	96	96	2
XTP	20	192	3
TTP	21	0	0	E	0	M1
XHO	21	0	6	96
XHO	21	192	2	96
TTP	21	192	4	E	0	M1
TTP	22	0	2	B	0	M1
TTP	22	0	3	B	0	M1
XTP	22	0	5
XTP	22	96	1
TTP	22	96	4	B	0	M1
TTP	22	96	5	B	0	M1
TTP	22	192	0	C	0	M1
XHO	22	192	7	96
BRK	22	288	0
HLD	23	0	1	96
TAP	23	0	7
HLD	23	96	3	96
HLD	23	192	4	96
TAP	23	288	5
STR	23	336	6
SI_	23	336	6	96	48	3
TAP	24	48	3
HLD	24	96	2	96
STR	24	192	4
SCR	24	192	4	96	48	7
BRK	24	288	0
STR	25	0	2
SI_	25	0	2	96	48	4
TAP	25	96	5
STR	25	192	1
SI_	25	192	1	96	48	5
TAP	25	192	6
TAP	25	288	7
STR	26	0	4
SI_	26	0	4	96	48	2
TAP	26	0	6
TAP	26	96	5
TAP	26	192	1
TAP	26	192	5
XTP	26	240	7
XTP	26	288	7
TAP	27	0	3
STR	27	0	5
SI_	27	0	5	96	48	3
TAP	27	96	2
TAP	27	192	1
STR	27	192	6
SI_	27	192	6	96	48	2
TAP	27	288	0
TAP	28	0	1
STR	28	0	3
SI_	28	0	3	96	48	5
TAP	28	96	2
TAP	28	192	2
TAP	28	192	6
XTP	28	240	0
XTP	28	288	0
STR	29	0	2
SI_	29	0	2	96	48	4
TAP	29	0	4
TAP	29	96	5
STR	29	192	1
SI_	29	192	1	96	48	5
TAP	29	192	6
TAP	29	288	7
STR	30	0	4
SI_	30	0	4	96	48	2
TAP	30	0	6
TAP	30	96	5
TAP	30	192	1
TAP	30	192	4
XTP	30	240	0
XTP	30	288	0
XTP	30	288	7
HLD	31	0	1	96
TAP	31	0	5
TAP	31	96	4
TAP	31	144	3
TAP	31	192	2
HLD	31	192	6	96
TAP	31	288	7
TAP	31	336	0
TAP	32	0	1
TAP	32	0	4
TAP	32	48	2
TAP	32	96	3
TAP	32	96	5
TAP	32	144	5
XTP	32	192	3
XTP	32	224	4
XTP	32	256	3
XTP	32	288	4
THO	33	0	0	288	C	0	M1
TAP	33	96	7
TAP	33	192	6
TAP	33	288	5
HLD	34	0	5	384
TTP	34	96	0	E	0	M1
TTP	34	192	7	E	0	M1
TTP	34	288	6	E	0	M1
THO	35	0	0	288	C	0	M1
TAP	35	96	6
TAP	35	192	5
TAP	35	288	4
XTP	36	0	6
TAP	36	32	6
TAP	36	64	6
XTP	36	96	1
TAP	36	128	1
TAP	36	160	1
XTP	36	192	3
TAP	36	224	3
TAP	36	256	3
TTP	36	288	0	C	0	M1
TTP	36	288	7	B	0	M1
STR	37	0	0
SI_	37	0	0	96	48	4
XTP	37	0	6
TAP	37	96	5
XTP	37	192	2
STR	37	192	7
SI_	37	192	7	96	48	3
TAP	37	288	4
XTP	38	0	2
STR	38	0	5
SI_	38	0	5	96	48	1
TAP	38	96	0
STR	38	192	2
SI_	38	192	2	96	48	7
XTP	38	192	4
TAP	38	288	7
XTP	39	0	0
TAP	39	24	6
TAP	39	48	0
TAP	39	72	6
XTP	39	96	1
TAP	39	120	5
TAP	39	144	1
TAP	39	168	5
XTP	39	192	2
TAP	39	216	4
TAP	39	240	2
TAP	39	264	4
XTP	39	288	3
XTP	39	336	3
TAP	40	48	5
TAP	40	72	4
TAP	40	96	5
TAP	40	144	6
TAP	40	192	2
TAP	40	192	4
BST	40	288	0
SCR	40	288	0	96	48	3
STR	41	0	0
SCL	41	0	0	96	48	5
TTP	41	0	5	B	0	M1
TTP	41	0	6	B	0	M1
STR	41	96	0
SI_	41	96	0	96	48	4
TTP	41	96	2	B	0	M1
TTP	41	96	3	B	0	M1
TAP	41	192	0
TTP	41	192	5	B	0	M1
TTP	41	192	6	B	0	M1
TAP	41	288	7
TAP	41	336	7
TAP	42	0	0
TAP	42	0	1
TAP	42	48	2
TAP	42	96	3
TAP	42	96	5
TAP	42	144	6
TAP	42	192	1
TAP	42	192	7
TAP	42	240	5
TAP	42	288	3
TAP	42	288	4
TAP	42	336	2
STR	43	0	1
SCR	43	0	1	96	48	4
STR	43	96	5
SV_	43	96	5	96	48	0
TAP	43	144	5
STR	43	192	2
SCR	43	192	2	96	48	5
TAP	43	288	7
TAP	43	336	7
TAP	44	0	1
TAP	44	0	7
TAP	44	48	2
TAP	44	96	3
TAP	44	96	4
TAP	44	144	5
XTP	44	192	3
XTP	44	192	6
TAP	44	240	2
BST	44	288	7
SCL	44	288	7	96	48	4
TTP	45	0	1	B	0	M1
TTP	45	0	2	B	0	M1
STR	45	0	7
SCR	45	0	7	96	48	2
TTP	45	96	4	B	0	M1
TTP	45	96	5	B	0	M1
STR	45	96	7
SI_	45	96	7	96	48	3
TTP	45	192	1	B	0	M1
TTP	45	192	2	B	0	M1
TAP	45	192	7
TAP	45	288	0
TAP	45	336	0
TAP	46	0	6
TAP	46	0	7
TAP	46	48	5
TAP	46	96	2
TAP	46	96	4
TAP	46	144	1
TAP	46	192	0
TAP	46	192	6
TAP	46	240	2
STR	46	288	3
SI_	46	288	3	96	48	7
TAP	46	288	7
TAP	46	336	6
HLD	47	0	5	96
STR	47	96	4
SI_	47	96	4	96	48	1
TAP	47	144	4
STR	47	192	7
SI_	47	192	7	96	48	3
TAP	47	240	7
XTP	47	288	0
BRK	47	336	0
TAP	48	48	1
TAP	48	48	4
TAP	48	96	2
TAP	48	144	3
TAP	48	144	4
STR	48	192	5
SI_	48	192	5	96	48	7
BRK	48	288	0
STR	49	0	1
SCR	49	0	1	96	48	4
TTP	49	96	3	B	0	M1
TTP	49	96	4	B	0	M1
STR	49	192	7
SCL	49	192	7	96	48	4
TTP	49	288	4	B	0	M1
TTP	49	288	5	B	0	M1
STR	50	0	0
SCR	50	0	0	96	48	3
TTP	50	96	2	B	0	M1
TTP	50	96	3	B	0	M1
HLD	50	192	7	96
TAP	50	288	0
TAP	50	336	0
TTP	51	0	6	B	0	M1
TTP	51	0	7	E	0	M1
TTP	51	48	0	B	0	M1
TTP	51	48	1	E	0	M1
TTP	51	96	4	B	0	M1
TTP	51	96	5	E	0	M1
TTP	51	144	2	B	0	M1
TTP	51	144	3	E	0	M1
XTP	51	192	5
XST	51	240	5
SCR	51	240	5	96	144	3
TTP	51	336	0	C	1	M1
TAP	52	192	0
TAP	52	192	7
TAP	52	240	1
TAP	52	240	6
XTP	52	288	2
XTP	52	288	5
STR	53	0	5
SCR	53	0	5	96	48	0
TTP	53	96	0	B	0	M1
TTP	53	96	1	B	0	M1
STR	53	192	3
SCL	53	192	3	96	48	0
TTP	53	288	6	B	0	M1
TTP	53	288	7	B	0	M1
STR	54	0	4
SCR	54	0	4	96	48	7
TTP	54	96	1	B	0	M1
TTP	54	96	2	B	0	M1
HLD	54	192	3	96
STR	54	288	5
SI_	54	288	5	96	48	3
TAP	54	336	5
HLD	55	0	1	96
STR	55	96	0
SI_	55	96	0	96	48	5
TAP	55	144	0
TAP	55	192	3
TAP	55	240	2
TAP	55	288	1
XTP	55	336	1
XTP	55	336	4
TAP	56	48	6
TAP	56	72	4
TAP	56	96	5
TAP	56	120	4
TAP	56	144	5
XTP	56	192	1
XTP	56	224	1
XTP	56	256	0
XTP	56	288	2
XST	56	288	7
SCL	56	288	7	96	768	2
TTP	57	0	0	C	1	M1
TTP	60	0	4	E	0	M1
TTP	60	64	5	B	0	M1
TTP	60	96	5	E	0	M1
TTP	60	160	2	B	0	M1
TTP	60	192	3	E	0	M1
TTP	60	288	6	E	0	M1
TTP	60	288	7	E	0	M1
TTP	61	0	0	C	0	M1
TTP	61	96	1	E	0	M1
TTP	61	192	0	C	0	M1
TTP	61	192	5	E	0	M1
TTP	61	192	6	E	0	M1
TTP	61	288	2	E	0	M1
TTP	62	0	0	C	0	M1
TTP	62	96	3	E	0	M1
TTP	62	192	0	C	0	M1
TTP	62	192	6	E	0	M1
TTP	62	192	7	E	0	M1
TTP	62	288	2	E	0	M1
TTP	63	0	0	C	0	M1
TTP	63	96	1	E	0	M1
TTP	63	192	0	C	0	M1
TTP	63	192	5	E	0	M1
TTP	63	192	6	E	0	M1
TTP	63	288	2	E	0	M1
THO	64	0	0	192	C	0	M1
TTP	64	192	1	B	0	M1
TTP	64	192	2	B	0	M1
TTP	64	192	5	B	0	M1
TTP	64	192	6	B	0	M1
HLD	65	0	2	96
HLD	65	96	3	192
TAP	65	192	4
TAP	65	288	2
TAP	66	0	3
HLD	66	0	5	96
HLD	66	96	4	192
TAP	66	192	3
TAP	66	288	5
HLD	67	0	1	96
TAP	67	0	4
HLD	67	96	3	192
TAP	67	192	5
TAP	67	288	1
TTP	68	0	0	C	0	M1
TTP	68	64	1	E	0	M1
TTP	68	96	2	E	0	M1
TTP	68	160	7	E	0	M1
TTP	68	192	6	E	0	M1
TTP	68	288	3	B	0	M1
TTP	68	288	4	B	0	M1
TTP	68	288	4	E	0	M1
STR	69	0	2
SI_	69	0	2	96	48	4
TAP	69	0	5
TTP	69	96	0	C	0	M1
TAP	69	192	1
STR	69	192	6
SI_	69	192	6	96	48	0
TTP	69	288	0	C	0	M1
STR	70	0	2
SI_	70	0	2	96	48	4
TAP	70	0	5
TTP	70	96	0	C	0	M1
TAP	70	192	1
STR	70	192	6
SI_	70	192	6	96	48	0
TTP	70	288	0	C	0	M1
TAP	71	0	1
TAP	71	24	7
TAP	71	48	1
TAP	71	72	7
TAP	71	96	2
TAP	71	120	6
TAP	71	144	2
TAP	71	168	6
TAP	71	192	3
TAP	71	216	5
TAP	71	240	3
TAP	71	264	5
XTP	71	288	4
XTP	71	336	4
HLD	72	48	2	12
HLD	72	48	3	12
HLD	72	120	4	12
HLD	72	120	5	12
HLD	72	192	2	12
HLD	72	192	3	12
XTP	72	288	1
XTP	72	288	6
THO	73	0	0	336	C	0	M1
TTP	73	0	5	B	0	M1
TTP	73	0	6	B	0	M1
TTP	73	192	1	B	0	M1
TTP	73	192	2	B	0	M1
XHO	73	336	6	96
XTP	74	48	7
XTP	74	144	4
XTP	74	144	5
XTP	74	192	3
XTP	74	192	6
XTP	74	288	0
THO	75	0	0	336	C	0	M1
TTP	75	0	1	B	0	M1
TTP	75	0	2	B	0	M1
TTP	75	192	5	B	0	M1
TTP	75	192	6	B	0	M1
XHO	75	336	1	96
XTP	76	48	0
XTP	76	144	2
XTP	76	144	3
XTP	76	192	1
XTP	76	192	4
BST	76	288	3
SCR	76	288	3	96	48	6
BRK	76	288	7
TTP	77	0	1	B	0	M1
TTP	77	0	2	B	0	M1
STR	77	0	3
SCL	77	0	3	96	48	0
STR	77	96	3
SI_	77	96	3	96	48	7
TTP	77	96	4	B	0	M1
TTP	77	96	5	B	0	M1
TTP	77	192	1	B	0	M1
TTP	77	192	2	B	0	M1
TAP	77	192	3
TAP	77	288	0
TAP	77	336	7
TAP	78	0	4
TAP	78	0	6
TAP	78	48	5
TAP	78	96	2
TAP	78	96	4
TAP	78	144	1
TAP	78	192	3
TAP	78	192	5
TAP	78	240	6
TAP	78	288	2
TAP	78	288	7
TAP	78	336	3
TAP	79	0	4
STR	79	0	5
SI_	79	0	5	96	48	1
STR	79	96	0
SV_	79	96	0	96	48	3
TAP	79	144	0
STR	79	192	4
SCR	79	192	4	96	48	7
TAP	79	240	4
TAP	79	288	2
HLD	79	336	1	240
TAP	80	48	0
TAP	80	96	7
TAP	80	144	6
STR	80	192	5
SI_	80	192	5	96	48	1
BRK	80	288	0
HLD	81	0	2	72
TAP	81	0	7
TAP	81	72	3
TAP	81	96	2
TAP	81	144	1
TAP	81	144	4
TAP	81	192	0
TAP	81	240	6
TAP	81	240	7
TAP	81	288	5
TAP	81	336	1
TAP	81	336	4
STR	82	0	2
SCR	82	0	2	96	48	5
TAP	82	72	3
TAP	82	96	2
TAP	82	144	0
BRK	82	192	1
BRK	82	192	7
TAP	82	288	3
TAP	82	336	3
TTP	83	0	5	B	0	M1
TTP	83	0	6	E	0	M1
TTP	83	48	1	B	0	M1
TTP	83	48	2	E	0	M1
TTP	83	96	0	E	0	M1
TTP	83	96	7	B	0	M1
TTP	83	144	3	B	0	M1
TTP	83	144	4	E	0	M1
TAP	83	192	6
STR	83	240	6
SCL	83	240	6	96	144	0
TTP	83	336	0	C	1	M1
TAP	84	192	6
TAP	84	192	7
TAP	84	240	0
TAP	84	240	5
BRK	84	288	1
BRK	84	288	4
TAP	85	0	0
HLD	85	0	5	72
TAP	85	72	4
TAP	85	96	5
TAP	85	144	3
TAP	85	144	6
TAP	85	192	7
TAP	85	240	0
TAP	85	240	1
TAP	85	288	2
TAP	85	336	3
TAP	85	336	6
STR	86	0	5
SCL	86	0	5	96	48	2
TAP	86	72	4
TAP	86	96	5
TAP	86	144	7
TAP	86	192	0
TAP	86	240	1
XTP	86	288	2
XST	86	288	6
SI_	86	288	6	96	48	3
BRK	87	0	4
BRK	87	0	6
STR	87	96	1
SI_	87	96	1	96	48	4
BRK	87	192	1
BRK	87	192	3
XTP	87	288	5
TAP	87	336	1
STR	87	336	7
SI_	87	336	7	96	48	3
TAP	88	48	3
TAP	88	48	7
BRK	88	144	1
BRK	88	144	5
BRK	88	192	1
BRK	88	192	5

T_REC_TAP	296
T_REC_BRK	23
T_REC_XTP	75
T_REC_HLD	33
T_REC_XHO	13
T_REC_STR	62
T_REC_BST	3
T_REC_XST	5
T_REC_TTP	120
T_REC_THO	5
T_REC_SLD	70
T_REC_ALL	705
T_NUM_TAP	558
T_NUM_BRK	26
T_NUM_HLD	51
T_NUM_SLD	70
T_NUM_ALL	705
T_JUDGE_TAP	584
T_JUDGE_HLD	131
T_JUDGE_SLD	70
T_JUDGE_ALL	785
TTM_EACHPAIRS	116
TTM_SCR_TAP	279000
TTM_SCR_BRK	67600
TTM_SCR_HLD	51000
TTM_SCR_SLD	105000
TTM_SCR_ALL	502600
TTM_SCR_S	485000
TTM_SCR_SS	500000
TTM_RAT_ACV	10052

