VERSION	0.00.00	1.03.00
FES_MODE	0
BPM_DEF	160.000	160.000	160.000	160.000
MET_DEF	4	4
RESOLUTION	384
CLK_DEF	384
COMPATIBLE_CODE	MA2

BPM	0	0	160.000
MET	0	0	4	4

TTP	1	0	1	B	0	M1
TTP	1	0	2	B	0	M1
TTP	1	192	5	B	0	M1
TTP	1	192	6	B	0	M1
XTP	1	336	3
XTP	1	336	4
XTP	2	48	2
XTP	2	48	5
XTP	2	144	1
XTP	2	144	6
XTP	2	192	1
XTP	2	192	6
BRK	2	288	0
TTP	3	0	5	B	0	M1
TTP	3	0	6	B	0	M1
TTP	3	192	1	B	0	M1
TTP	3	192	2	B	0	M1
XTP	3	336	0
XTP	3	336	7
XTP	4	48	1
XTP	4	48	6
XTP	4	144	2
XTP	4	144	5
XTP	4	192	2
XTP	4	192	5
BRK	4	288	7
HLD	5	0	2	96
TAP	5	96	3
HLD	5	192	5	96
TAP	5	288	4
HLD	6	0	1	96
TAP	6	96	3
HLD	6	192	6	96
TAP	6	288	4
TAP	7	0	1
TAP	7	48	1
TAP	7	96	7
TAP	7	144	7
TAP	7	192	0
TAP	7	288	3
TAP	7	288	4
TAP	7	336	3
TAP	7	336	4
TAP	8	48	0
TAP	8	48	7
BRK	8	144	1
BRK	8	144	6
BRK	8	192	1
BRK	8	192	6
XTP	8	288	3
XTP	8	288	4
STR	9	0	2
SI_	9	0	2	96	48	7
TAP	9	96	3
STR	9	192	5
SI_	9	192	5	96	48	0
TAP	9	288	4
STR	10	0	2
SI_	10	0	2	96	48	7
TAP	10	96	3
TAP	10	192	5
TAP	10	288	3
TAP	10	288	4
STR	11	0	1
SI_	11	0	1	96	48	4
TAP	11	96	3
STR	11	192	6
SI_	11	192	6	96	48	3
TAP	11	288	4
STR	12	0	1
SI_	12	0	1	96	48	4
TAP	12	96	3
TAP	12	192	6
TAP	12	240	0
TAP	12	240	7
TAP	12	288	0
TAP	12	288	7
STR	13	0	2
SI_	13	0	2	96	48	7
TAP	13	96	3
STR	13	192	5
SI_	13	192	5	96	48	0
TAP	13	288	4
STR	14	0	2
SI_	14	0	2	96	48	7
TAP	14	96	3
TAP	14	192	5
TAP	14	288	1
TAP	14	288	6
STR	15	0	7
SI_	15	0	7	96	48	3
TAP	15	96	1
STR	15	192	0
SI_	15	192	0	96	48	4
TAP	15	288	6
TAP	15	336	6
TAP	16	48	3
TAP	16	48	4
TAP	16	96	3
TAP	16	96	4
BRK	16	192	1
BRK	16	192	6
TTP	16	288	0	C	1	M1
HLD	17	0	7	288
HLD	17	192	4	96
TAP	18	0	3
TAP	18	0	6
TAP	18	96	2
TAP	18	96	5
TAP	18	192	1
TAP	18	192	4
BRK	18	288	0
HLD	19	0	1	96
HLD	19	96	3	96
HLD	19	192	2	96
TAP	19	288	4
TAP	19	336	4
TAP	20	48	3
TAP	20	96	3
TAP	20	192	4
TAP	20	192	5
TAP	20	288	2
TAP	20	288	3
HLD	21	0	0	288
HLD	21	192	3	96
TAP	22	0	1
TAP	22	0	4
TAP	22	96	2
TAP	22	96	5
TAP	22	192	3
TAP	22	192	6
BRK	22	288	7
HLD	23	0	6	96
HLD	23	96	4	96
HLD	23	192	5	96
TAP	23	288	3
TAP	23	336	3
TAP	24	48	4
TAP	24	96	4
TAP	24	192	3
TAP	24	192	4
TAP	24	288	1
TAP	24	288	6
HLD	25	0	2	96
TAP	25	96	3
HLD	25	192	6	96
TAP	25	288	4
HLD	25	336	4	96
TAP	26	48	5
TAP	26	96	5
TAP	26	192	3
TAP	26	192	6
TAP	26	288	1
TAP	26	288	4
HLD	27	0	5	96
TAP	27	96	4
HLD	27	192	1	96
TAP	27	288	3
HLD	27	336	3	96
TAP	28	48	2
TAP	28	96	2
TAP	28	192	1
TAP	28	192	4
TAP	28	240	5
TAP	28	288	5
HLD	29	0	1	96
TAP	29	96	3
HLD	29	192	4	96
TAP	29	288	2
HLD	29	336	2	96
TAP	30	48	3
TAP	30	96	3
TAP	30	192	2
TAP	30	192	4
TAP	30	288	3
TAP	30	288	5
HLD	31	0	6	96
TAP	31	96	4
HLD	31	192	3	96
TAP	31	288	5
HLD	31	336	5	96
TAP	32	48	4
TAP	32	96	4
BRK	32	192	1
BRK	32	192	6
TTP	33	0	0	B	0	M1
TTP	33	96	1	B	0	M1
TTP	33	192	2	B	0	M1
TTP	33	288	3	B	0	M1
TTP	34	0	4	B	0	M1
TTP	34	96	5	B	0	M1
XTP	34	192	6
XTP	34	288	6
TTP	35	0	7	B	0	M1
TTP	35	96	6	B	0	M1
TTP	35	192	5	B	0	M1
TTP	35	288	4	B	0	M1
TTP	36	0	3	B	0	M1
TTP	36	96	2	B	0	M1
XTP	36	192	1
XTP	36	288	1
TAP	37	0	0
TAP	37	96	1
TAP	37	96	3
TAP	37	192	2
TAP	37	288	3
TAP	37	288	5
TAP	38	0	4
TAP	38	96	5
TAP	38	96	7
TAP	38	192	6
TAP	38	288	1
TAP	38	288	7
XTP	39	0	0
XTP	39	48	6
XTP	39	96	1
XTP	39	144	7
XTP	39	192	0
XTP	39	240	0
XTP	39	288	0
XTP	39	288	7
BRK	39	336	1
BRK	39	336	6
TAP	40	48	3
TAP	40	48	4
TAP	40	96	3
TAP	40	96	4
BRK	40	192	2
BRK	40	192	6
STR	40	288	1
SI_	40	288	1	96	48	4
STR	41	0	0
SI_	41	0	0	96	48	5
STR	41	96	1
SI_	41	96	1	96	48	4
TAP	41	192	0
TAP	41	288	5
TAP	41	336	5
TAP	42	48	2
TAP	42	48	3
STR	42	96	2
SI_	42	96	2	96	48	7
STR	42	96	3
SI_	42	96	3	96	48	6
BRK	42	288	0
BRK	42	288	5
TAP	43	0	3
TAP	43	0	4
TAP	43	96	1
TAP	43	144	0
HLD	43	192	2	96
TAP	43	288	4
HLD	43	336	4	240
TAP	44	48	0
TAP	44	96	0
TAP	44	144	7
TAP	44	192	7
BST	44	288	6
SI_	44	288	6	96	48	3
STR	45	0	7
SI_	45	0	7	96	48	2
STR	45	96	6
SI_	45	96	6	96	48	3
TAP	45	192	7
TAP	45	288	2
TAP	45	336	2
TAP	46	48	4
TAP	46	48	5
STR	46	96	4
SI_	46	96	4	96	48	1
STR	46	96	5
SI_	46	96	5	96	48	0
BRK	46	288	2
BRK	46	288	7
TAP	47	0	3
TAP	47	0	4
TAP	47	96	6
TAP	47	144	7
HLD	47	192	5	96
TAP	47	288	1
TAP	47	336	1
TAP	47	336	5
TAP	48	48	2
TAP	48	48	6
TAP	48	96	2
TAP	48	96	6
TAP	48	144	3
TAP	48	144	7
TAP	48	192	3
TAP	48	192	7
BRK	48	288	1
BRK	48	288	5
STR	49	0	2
SI_	49	0	2	96	48	7
TAP	49	96	4
STR	49	192	5
SI_	49	192	5	96	48	0
TAP	49	288	3
STR	50	0	2
SI_	50	0	2	96	48	7
TAP	50	96	4
STR	50	192	5
SI_	50	192	5	96	48	0
TAP	50	288	2
TAP	50	336	2
TAP	51	0	2
TAP	51	96	1
TAP	51	96	7
TAP	51	192	4
TAP	51	192	5
STR	51	240	4
SUR	51	240	4	96	240	3
STR	51	240	5
SCR	51	240	5	96	240	2
BRK	52	288	1
BRK	52	288	6
STR	53	0	5
SI_	53	0	5	96	48	0
TAP	53	96	3
STR	53	192	2
SI_	53	192	2	96	48	7
TAP	53	288	4
STR	54	0	5
SI_	54	0	5	96	48	0
TAP	54	96	3
STR	54	192	2
SI_	54	192	2	96	48	7
TAP	54	288	5
TAP	54	336	5
TAP	55	0	5
TAP	55	96	0
TAP	55	96	6
TAP	55	192	2
TAP	55	192	3
STR	55	240	2
SCL	55	240	2	96	240	5
STR	55	240	3
SUL	55	240	3	96	240	4
BRK	56	288	1
BRK	56	288	6
HLD	57	0	2	192
HLD	57	192	4	192
HLD	58	0	3	192
HLD	58	192	2	192
HLD	59	0	1	192
HLD	59	192	3	192
HLD	60	0	4	192
TAP	60	192	5
HLD	61	0	5	192
HLD	61	192	3	192
HLD	62	0	4	192
HLD	62	192	5	192
HLD	63	0	6	192
HLD	63	192	4	192
HLD	64	0	3	192
TAP	64	192	2
TTP	65	0	4	B	0	M1
TTP	65	96	5	B	0	M1
TTP	65	192	6	B	0	M1
TTP	65	288	7	B	0	M1
TTP	66	0	0	B	0	M1
TTP	66	96	1	B	0	M1
XTP	66	192	2
XTP	66	288	2
TTP	67	0	3	B	0	M1
TTP	67	96	2	B	0	M1
TTP	67	192	1	B	0	M1
TTP	67	288	0	B	0	M1
TTP	68	0	7	B	0	M1
TTP	68	96	6	B	0	M1
XTP	68	192	5
XTP	68	288	5
TAP	69	0	4
TAP	69	96	5
TAP	69	96	7
TAP	69	192	6
TAP	69	288	1
TAP	69	288	7
TAP	70	0	0
TAP	70	96	1
TAP	70	96	3
TAP	70	192	2
TAP	70	288	3
TAP	70	288	5
XTP	71	0	4
XTP	71	48	2
XTP	71	96	5
XTP	71	144	3
XTP	71	192	4
XTP	71	240	4
XTP	71	288	3
XTP	71	288	4
BRK	71	336	2
BRK	71	336	5
TAP	72	48	0
TAP	72	48	7
TAP	72	96	0
TAP	72	96	7
TAP	72	192	1
TAP	72	192	6
BRK	72	288	3
BRK	72	288	4
TTP	73	0	0	C	1	M1
TTP	73	0	1	B	0	M1
TTP	73	0	5	B	0	M1
TTP	73	192	0	C	1	M1
TTP	73	192	2	B	0	M1
TTP	73	192	6	B	0	M1
BRK	73	336	0
BRK	73	336	7
BRK	74	48	1
BRK	74	48	6
BRK	74	144	2
BRK	74	144	5
BRK	74	192	2
BRK	74	192	5
BRK	74	288	3
BRK	74	288	4
TTP	75	0	0	C	1	M1
TTP	75	0	2	B	0	M1
TTP	75	0	6	B	0	M1
TTP	75	192	0	C	1	M1
TTP	75	192	1	B	0	M1
TTP	75	192	5	B	0	M1
HLD	75	336	6	240
TAP	76	48	0
TAP	76	96	0
TAP	76	144	1
TAP	76	192	1
BST	76	288	2
SI_	76	288	2	96	48	7
BRK	76	288	5
STR	77	0	3
SI_	77	0	3	96	48	6
STR	77	96	2
SI_	77	96	2	96	48	7
TAP	77	192	3
TAP	77	288	6
TAP	77	336	6
TAP	78	48	0
TAP	78	48	1
STR	78	96	0
SI_	78	96	0	96	48	5
STR	78	96	1
SI_	78	96	1	96	48	4
BRK	78	288	3
BRK	78	288	6
TAP	79	0	0
TAP	79	0	7
TAP	79	96	2
TAP	79	144	3
HLD	79	192	1	96
TAP	79	288	5
TAP	79	336	1
TAP	79	336	5
TAP	80	48	2
TAP	80	48	6
TAP	80	96	2
TAP	80	96	6
TAP	80	144	3
TAP	80	144	7
TAP	80	192	3
TAP	80	192	7
BRK	80	288	1
BRK	80	288	5
STR	81	0	6
SI_	81	0	6	96	48	3
TAP	81	96	0
STR	81	192	1
SI_	81	192	1	96	48	4
TAP	81	288	7
STR	82	0	6
SI_	82	0	6	96	48	3
TAP	82	96	0
STR	82	192	1
SI_	82	192	1	96	48	4
TAP	82	288	6
TAP	82	336	6
TAP	83	0	6
TAP	83	96	3
TAP	83	96	5
TAP	83	192	0
TAP	83	192	1
STR	83	240	0
SUR	83	240	0	96	240	7
STR	83	240	1
SCR	83	240	1	96	240	6
BRK	84	288	2
BRK	84	288	5
STR	85	0	1
SI_	85	0	1	96	48	4
TAP	85	96	7
STR	85	192	6
SI_	85	192	6	96	48	3
TAP	85	288	0
STR	86	0	1
SI_	86	0	1	96	48	4
TAP	86	96	7
STR	86	192	6
SI_	86	192	6	96	48	3
TAP	86	288	1
TAP	86	336	1
TAP	87	0	1
TAP	87	96	2
TAP	87	96	4
TAP	87	192	6
TAP	87	192	7
STR	87	240	6
SCL	87	240	6	96	240	1
STR	87	240	7
SUL	87	240	7	96	240	0
BRK	88	288	1
BRK	88	288	6

T_REC_TAP	232
T_REC_BRK	49
T_REC_XTP	42
T_REC_HLD	45
T_REC_XHO	0
T_REC_STR	48
T_REC_BST	2
T_REC_XST	0
T_REC_TTP	45
T_REC_THO	0
T_REC_SLD	50
T_REC_ALL	513
T_NUM_TAP	367
T_NUM_BRK	51
T_NUM_HLD	45
T_NUM_SLD	50
T_NUM_ALL	513
T_JUDGE_TAP	418
T_JUDGE_HLD	132
T_JUDGE_SLD	50
T_JUDGE_ALL	600
TTM_EACHPAIRS	102
TTM_SCR_TAP	183500
TTM_SCR_BRK	132600
TTM_SCR_HLD	45000
TTM_SCR_SLD	75000
TTM_SCR_ALL	436100
TTM_SCR_S	418100
TTM_SCR_SS	431000
TTM_RAT_ACV	10118

