VERSION	0.00.00	1.03.00
FES_MODE	0
BPM_DEF	160.000	160.000	160.000	160.000
MET_DEF	4	4
RESOLUTION	384
CLK_DEF	384
COMPATIBLE_CODE	MA2

BPM	0	0	160.000
MET	0	0	4	4

STR	1	0	1
SI_	1	0	1	96	288	4
TAP	2	192	5
XST	3	0	6
SI_	3	0	6	96	288	3
XTP	4	192	2
TAP	5	0	3
TAP	5	96	3
TAP	5	192	2
TAP	6	0	4
TAP	6	96	4
TAP	6	192	5
TAP	7	0	3
TAP	7	96	3
TAP	7	192	4
TAP	7	288	4
TAP	8	0	3
TAP	8	0	4
XTP	8	192	2
XTP	8	192	5
TAP	9	0	2
TAP	9	96	2
TAP	9	192	1
TAP	9	288	1
TAP	10	0	0
TAP	10	0	1
TAP	10	192	0
TAP	10	192	7
TAP	11	0	6
TAP	11	96	6
TAP	11	192	5
TAP	11	288	5
TAP	12	0	4
TAP	12	0	5
TAP	12	192	3
TAP	12	192	6
TAP	13	0	2
TAP	13	96	2
TAP	13	192	2
TAP	13	192	3
TAP	14	0	5
TAP	14	96	5
TAP	14	192	4
TAP	14	192	5
TAP	15	0	2
TAP	15	96	2
TAP	15	192	1
TAP	15	288	1
TAP	16	0	0
TAP	16	0	7
XTP	16	192	1
XTP	16	192	6
XHO	17	0	2	96
XHO	17	0	3	96
XHO	17	192	4	96
XHO	17	192	5	96
HLD	18	0	3	96
HLD	18	0	4	96
TAP	18	192	2
TAP	18	192	5
HLD	19	0	5	192
TAP	19	96	4
TAP	19	192	4
HLD	20	0	2	192
TAP	20	96	3
TAP	20	192	3
XHO	21	0	4	96
XHO	21	0	5	96
XHO	21	192	2	96
XHO	21	192	3	96
XHO	22	0	3	96
XHO	22	0	4	96
XTP	22	192	2
XTP	22	192	5
HLD	23	0	1	192
TAP	23	96	0
TAP	23	192	0
HLD	24	0	0	96
HLD	24	0	7	96
BRK	24	192	1
BRK	24	192	6
TAP	25	0	5
TAP	25	96	5
TAP	25	192	4
TAP	25	288	4
TAP	26	0	5
TAP	26	96	5
TAP	26	192	4
TAP	26	192	6
TAP	27	0	2
TAP	27	96	2
TAP	27	192	3
TAP	27	288	3
TAP	28	0	2
TAP	28	96	2
TAP	28	192	1
TAP	28	192	3
TAP	29	0	1
TAP	29	96	1
TAP	29	192	0
TAP	29	288	0
TAP	30	0	1
TAP	30	96	1
TAP	30	192	2
TAP	30	192	7
STR	31	0	0
SI_	31	0	0	96	192	4
TAP	32	0	5
TAP	32	96	5
BRK	32	192	3
BRK	32	192	6
TTP	33	0	5	E	0	L1
TTP	33	192	0	C	0	L1
TTP	34	0	1	E	0	L1
TTP	34	192	2	E	0	L1
TTP	35	0	3	E	0	L1
TTP	35	192	5	E	0	L1
THO	36	0	0	192	C	0	L1
TTP	37	0	6	E	0	L1
TTP	37	96	5	B	0	L1
TTP	37	192	4	B	0	L1
TTP	38	0	2	E	0	L1
TTP	38	96	2	B	0	L1
TTP	38	192	3	B	0	L1
TTP	39	0	4	B	0	L1
TTP	39	0	5	B	0	L1
TTP	39	192	2	B	0	L1
TTP	39	192	3	B	0	L1
THO	40	0	0	192	C	1	L1
XTP	41	0	0
XTP	41	0	7
XTP	41	96	0
XTP	41	96	7
XTP	41	192	1
XTP	41	192	6
TAP	41	288	1
TAP	41	288	6
TAP	42	0	2
TAP	42	96	3
TAP	42	192	4
TAP	42	192	5
TAP	42	288	4
TAP	42	288	5
TAP	43	0	6
TAP	43	96	6
TAP	43	96	7
TAP	43	192	1
TAP	43	288	0
TAP	43	288	1
TAP	44	0	6
TAP	44	96	6
TAP	44	96	7
XTP	44	192	0
XTP	44	192	5
XTP	45	0	3
XTP	45	0	4
XTP	45	96	3
XTP	45	96	4
XTP	45	192	2
XTP	45	192	5
TAP	45	288	2
TAP	45	288	5
TAP	46	0	1
TAP	46	96	0
TAP	46	192	6
TAP	46	192	7
TAP	46	288	6
TAP	46	288	7
TAP	47	0	5
TAP	47	96	4
TAP	47	96	5
TAP	47	192	2
TAP	47	288	2
TAP	47	288	3
TAP	48	0	3
TAP	48	0	4
TAP	48	96	3
TAP	48	96	4
BRK	48	192	2
BRK	48	192	5
STR	49	0	1
SI_	49	0	1	96	192	4
STR	50	0	5
SI_	50	0	5	96	192	0
STR	51	0	1
SI_	51	0	1	96	192	4
TAP	52	0	5
TAP	52	96	4
TAP	52	192	3
TAP	52	192	4
STR	53	0	2
SCL	53	0	2	96	192	7
STR	54	0	6
SCL	54	0	6	96	192	3
HLD	55	0	2	192
HLD	55	192	1	192
TAP	56	0	0
TAP	56	96	0
BRK	56	192	1
BRK	56	192	7
HLD	57	0	2	384
HLD	58	0	3	384
HLD	59	0	4	384
TAP	60	0	5
TAP	60	192	4
TAP	60	192	5
HLD	61	0	6	384
HLD	62	0	5	384
HLD	63	0	4	384
TAP	64	0	3
TAP	64	192	3
TAP	64	192	4
HLD	65	0	2	192
HLD	65	192	3	192
TAP	66	0	2
TAP	66	192	1
TAP	66	192	4
HLD	67	0	5	192
HLD	67	192	4	192
TAP	68	0	5
TAP	68	192	3
TAP	68	192	6
XHO	69	0	6	96
XHO	69	0	7	96
XHO	69	192	0	96
XHO	69	192	1	96
XHO	70	0	0	96
XHO	70	0	7	96
XTP	70	192	1
XTP	70	192	6
XTP	70	288	1
XTP	70	288	6
TAP	71	0	2
TAP	71	96	3
TAP	71	192	4
STR	71	288	5
SUR	71	288	5	96	192	2
XTP	73	0	3
XTP	73	0	4
XHO	73	192	2	144
XTP	73	288	3
XTP	73	336	3
XTP	74	48	2
XTP	74	48	3
XTP	74	144	3
XTP	74	144	4
XTP	74	192	3
XTP	74	192	4
XTP	75	0	3
XTP	75	0	4
XHO	75	192	5	144
XTP	75	288	4
XTP	75	336	4
XTP	76	48	4
XTP	76	48	5
XTP	76	144	3
XTP	76	144	4
XTP	76	192	3
XTP	76	192	4
BRK	76	288	2
BRK	76	288	5
XTP	77	0	0
XTP	77	0	1
XTP	77	96	2
XTP	77	96	7
XTP	77	192	3
XTP	77	192	6
TAP	77	288	4
TAP	77	288	5
TAP	78	0	2
TAP	78	0	3
TAP	78	96	1
TAP	78	96	6
TAP	78	192	4
TAP	78	192	5
TAP	78	288	1
TAP	78	288	6
HLD	79	0	2	96
TAP	79	96	3
HLD	79	192	6	96
TAP	79	288	4
HLD	80	0	1	96
TAP	80	96	0
BRK	80	192	2
BRK	80	192	7
TAP	81	0	1
TAP	81	96	2
TAP	81	192	3
TAP	81	288	4
TAP	82	0	4
TAP	82	0	5
TAP	82	96	4
TAP	82	96	5
TAP	82	192	3
TAP	82	192	6
TAP	83	0	5
TAP	83	96	6
TAP	83	192	7
TAP	83	288	0
TAP	84	0	0
TAP	84	0	1
TAP	84	96	0
TAP	84	96	1
TAP	84	192	2
TAP	84	192	7
TAP	85	0	2
TAP	85	0	3
TAP	85	96	1
TAP	85	96	4
TAP	85	192	0
TAP	85	192	5
TAP	86	0	4
TAP	86	0	5
TAP	86	96	3
TAP	86	96	6
TAP	86	192	2
TAP	86	192	7
HLD	87	0	3	96
HLD	87	0	4	96
XTP	87	192	3
XTP	87	192	4
XTP	87	288	2
XTP	87	288	5
XTP	87	336	2
XTP	87	336	5
XTP	88	48	0
XTP	88	48	7
XTP	88	144	1
XTP	88	144	6
BRK	88	192	1
BRK	88	192	6

T_REC_TAP	178
T_REC_BRK	14
T_REC_XTP	61
T_REC_HLD	24
T_REC_XHO	18
T_REC_STR	8
T_REC_BST	0
T_REC_XST	1
T_REC_TTP	16
T_REC_THO	2
T_REC_SLD	9
T_REC_ALL	331
T_NUM_TAP	264
T_NUM_BRK	14
T_NUM_HLD	44
T_NUM_SLD	9
T_NUM_ALL	331
T_JUDGE_TAP	278
T_JUDGE_HLD	148
T_JUDGE_SLD	9
T_JUDGE_ALL	435
TTM_EACHPAIRS	93
TTM_SCR_TAP	132000
TTM_SCR_BRK	36400
TTM_SCR_HLD	44000
TTM_SCR_SLD	13500
TTM_SCR_ALL	225900
TTM_SCR_S	217800
TTM_SCR_SS	224500
TTM_RAT_ACV	10062

