VERSION	0.00.00	1.03.00
FES_MODE	0
BPM_DEF	160.000	160.000	160.000	160.000
MET_DEF	4	4
RESOLUTION	384
CLK_DEF	384
COMPATIBLE_CODE	MA2

BPM	0	0	160.000
MET	0	0	4	4

TAP	1	0	3
TAP	1	192	3
TAP	2	0	3
TAP	3	0	4
TAP	3	192	4
TAP	4	0	4
TAP	5	0	2
TAP	5	192	2
TAP	6	0	3
TAP	6	0	4
TAP	6	192	3
TAP	6	192	4
TAP	7	0	5
TAP	7	192	5
TAP	8	0	3
TAP	8	0	4
BRK	8	192	3
BRK	8	192	4
TAP	9	0	3
TAP	9	192	3
TAP	10	0	2
TAP	10	192	2
TAP	11	0	1
TAP	11	192	1
HLD	12	0	0	192
TAP	13	0	7
TAP	13	192	7
TAP	14	0	6
TAP	14	192	6
TAP	15	0	5
TAP	15	192	5
HLD	16	0	4	192
TAP	17	0	3
TAP	17	0	4
TAP	17	192	3
TAP	17	192	4
TAP	18	0	2
TAP	18	192	2
TAP	19	0	3
TAP	19	192	3
TAP	20	0	4
TAP	20	96	4
TAP	20	192	4
TAP	21	0	3
TAP	21	0	4
TAP	21	192	3
TAP	21	192	4
TAP	22	0	5
TAP	22	192	5
TAP	23	0	4
TAP	23	192	4
TAP	24	0	3
TAP	24	96	3
BRK	24	192	3
BRK	24	192	4
TAP	25	0	3
TAP	25	192	3
TAP	26	0	4
TAP	26	192	4
TAP	27	0	5
TAP	27	192	5
TAP	28	0	6
TAP	28	96	6
TAP	28	192	6
TAP	28	192	7
TAP	29	0	0
TAP	29	192	0
TAP	30	0	1
TAP	30	192	1
TAP	31	0	2
TAP	31	192	2
HLD	32	0	3	192
HLD	32	0	4	192
TTP	33	0	5	E	0	L1
TTP	34	0	3	B	0	L1
TTP	35	0	4	B	0	L1
TTP	36	0	3	E	0	L1
TTP	37	0	3	B	0	L1
TTP	37	0	4	B	0	L1
TTP	38	0	2	B	0	L1
TTP	38	0	5	B	0	L1
THO	39	0	0	384	C	1	L1
TAP	41	0	7
TAP	41	96	7
TAP	41	192	7
TAP	42	0	6
TAP	42	96	6
TAP	42	192	6
TAP	43	0	5
TAP	43	96	5
TAP	43	192	5
HLD	44	0	4	192
TAP	45	0	3
TAP	45	96	3
TAP	45	192	3
TAP	46	0	2
TAP	46	96	2
TAP	46	192	2
TAP	47	0	1
TAP	47	96	1
TAP	47	192	1
HLD	48	0	0	192
STR	49	0	0
SI_	49	0	0	96	288	3
TAP	51	0	4
TAP	51	192	4
HLD	52	0	3	192
HLD	52	0	5	192
STR	53	0	4
SI_	53	0	4	96	288	7
TAP	55	0	0
TAP	55	192	0
HLD	56	0	1	192
HLD	56	0	7	192
TTP	57	0	0	B	0	L1
TTP	58	0	1	B	0	L1
TTP	59	0	2	B	0	L1
TTP	60	0	3	B	0	L1
TTP	61	0	4	B	0	L1
TTP	62	0	5	B	0	L1
TTP	63	0	6	B	0	L1
TTP	64	0	7	B	0	L1
TAP	65	0	0
TAP	66	0	7
TAP	67	0	6
TAP	68	0	5
TAP	69	0	4
TAP	69	192	4
TAP	70	0	3
TAP	70	192	3
HLD	71	0	2	384
HLD	71	0	5	384
TAP	73	0	3
TAP	73	96	3
TAP	73	192	3
TAP	74	0	4
TAP	74	96	4
TAP	74	192	4
TAP	75	0	5
TAP	75	96	5
TAP	75	192	5
HLD	76	0	6	192
HLD	76	0	7	192
TAP	77	0	7
TAP	77	96	7
TAP	77	192	7
TAP	78	0	0
TAP	78	96	0
TAP	78	192	0
TAP	79	0	1
TAP	79	96	1
TAP	79	192	1
HLD	80	0	2	192
HLD	80	0	3	192
TAP	81	0	4
TAP	81	0	5
TAP	81	192	4
TAP	81	192	5
TAP	82	0	3
TAP	82	96	4
TAP	82	192	3
TAP	83	0	2
TAP	83	0	3
TAP	83	192	2
TAP	83	192	3
TAP	84	0	4
TAP	84	96	3
TAP	84	192	4
TAP	85	0	5
TAP	85	96	5
TAP	85	192	4
TAP	85	192	5
TAP	86	0	3
TAP	86	96	4
TAP	86	192	3
TAP	87	0	2
TAP	87	96	2
TAP	87	192	2
TAP	87	192	3
HLD	88	0	3	288
HLD	88	0	4	288

T_REC_TAP	138
T_REC_BRK	4
T_REC_XTP	0
T_REC_HLD	18
T_REC_XHO	0
T_REC_STR	2
T_REC_BST	0
T_REC_XST	0
T_REC_TTP	16
T_REC_THO	1
T_REC_SLD	2
T_REC_ALL	181
T_NUM_TAP	156
T_NUM_BRK	4
T_NUM_HLD	19
T_NUM_SLD	2
T_NUM_ALL	181
T_JUDGE_TAP	160
T_JUDGE_HLD	92
T_JUDGE_SLD	2
T_JUDGE_ALL	254
TTM_EACHPAIRS	23
TTM_SCR_TAP	78000
TTM_SCR_BRK	10400
TTM_SCR_HLD	19000
TTM_SCR_SLD	3000
TTM_SCR_ALL	110400
TTM_SCR_S	106700
TTM_SCR_SS	110000
TTM_RAT_ACV	10036

