VERSION	0.00.00	1.03.00
FES_MODE	0
BPM_DEF	180.000	180.000	180.000	180.000
MET_DEF	4	4
RESOLUTION	384
CLK_DEF	384
COMPATIBLE_CODE	MA2

BPM	0	0	180.000
MET	0	0	4	4

XST	1	0	3
SSR	1	0	3	96	96	7
XST	1	0	4
SSL	1	0	4	96	96	0
TAP	1	288	1
TAP	1	288	6
TAP	2	0	2
TAP	2	0	3
TAP	2	96	3
TAP	2	96	4
TAP	2	192	4
HLD	2	192	5	72
HLD	2	264	6	72
STR	2	336	7
SCL	2	336	7	96	48	4
TAP	3	48	2
TAP	3	96	0
TAP	3	192	1
TAP	3	192	4
TAP	3	240	2
TAP	3	264	3
TAP	3	288	2
TAP	4	0	3
TAP	4	0	4
TAP	4	96	4
TAP	4	96	5
TAP	4	192	5
HLD	4	192	6	72
HLD	4	264	7	72
STR	4	336	0
SCL	4	336	0	96	96	4
TAP	5	48	3
TAP	5	96	2
TAP	5	144	1
XST	5	192	0
SI_	5	192	0	96	48	4
XTP	5	192	3
XTP	5	288	0
XTP	5	288	7
TAP	6	0	4
TAP	6	0	5
TAP	6	96	3
TAP	6	96	4
HLD	6	192	2	72
TAP	6	192	3
HLD	6	264	1	72
STR	6	336	0
SCR	6	336	0	96	48	3
TAP	7	48	5
TAP	7	96	7
TAP	7	192	3
TAP	7	192	6
TAP	7	240	5
TAP	7	264	4
TAP	7	288	5
TAP	8	0	3
TAP	8	0	4
TAP	8	96	2
TAP	8	96	3
HLD	8	192	1	72
TAP	8	192	2
HLD	8	264	0	72
TAP	8	336	3
XTP	9	0	4
XST	9	0	6
SI_	9	0	6	96	48	2
XST	9	96	0
SI_	9	96	0	96	48	4
XTP	9	96	6
XTP	9	192	0
XTP	9	192	7
XTP	9	288	1
XTP	9	288	6
HLD	10	0	3	96
TAP	10	0	5
TAP	10	96	2
TAP	10	192	3
TAP	10	264	4
STR	10	336	5
SCL	10	336	5	96	96	2
TAP	11	48	2
TAP	11	96	1
TAP	11	144	0
TAP	11	192	0
TAP	11	192	7
TAP	11	288	0
TAP	11	288	4
TAP	12	0	2
TAP	12	0	3
TAP	12	96	3
TAP	12	96	4
TAP	12	192	4
TAP	12	192	5
STR	12	264	4
SUR	12	264	4	96	120	3
STR	12	264	5
SCR	12	264	5	96	120	2
TAP	13	192	4
TAP	13	192	5
TTP	13	288	0	C	0	M1
HLD	14	0	3	96
TAP	14	0	5
TAP	14	96	2
TAP	14	192	3
TAP	14	264	4
HLD	14	336	5	96
TAP	15	48	3
TAP	15	96	4
TAP	15	144	3
STR	15	192	2
SCL	15	192	2	96	48	0
STR	15	192	5
SCL	15	192	5	96	48	3
STR	16	0	1
SUL	16	0	1	96	48	5
SUR	16	0	1	96	48	5
STR	16	192	6
SUL	16	192	6	96	48	2
SUR	16	192	6	96	48	2
STR	17	0	1
SI_	17	0	1	96	48	5
STR	17	96	7
SI_	17	96	7	96	48	3
TAP	17	192	4
TAP	17	288	2
TAP	17	288	5
TAP	18	0	2
HLD	18	0	4	96
TAP	18	96	5
TAP	18	192	4
TAP	18	264	3
STR	18	336	2
SLL	18	336	2	96	144	4
TAP	19	48	7
TAP	19	96	7
TAP	19	144	6
TAP	19	192	5
TAP	19	288	1
TAP	19	288	3
TAP	20	0	4
TAP	20	0	5
TAP	20	96	3
TAP	20	96	4
TAP	20	192	2
TAP	20	192	3
HLD	20	264	2	216
STR	20	264	3
SXR	20	264	3	96	120	6
TAP	21	192	0
TAP	21	192	4
TTP	21	288	0	C	0	M1
TAP	22	0	2
HLD	22	0	4	96
TAP	22	96	5
TAP	22	192	4
TAP	22	264	3
HLD	22	336	2	144
TAP	23	48	4
TAP	23	96	4
STR	23	192	2
SI_	23	192	2	96	48	6
STR	23	192	3
SI_	23	192	3	96	48	5
HLD	24	0	0	192
HLD	24	0	4	192
TAP	24	288	3
TAP	24	288	4
BRK	24	336	1
BRK	24	336	6
TAP	25	48	2
TAP	25	72	3
TAP	25	96	1
TAP	25	144	5
TAP	25	168	4
TAP	25	192	6
TAP	25	240	0
TAP	25	240	7
XTP	25	288	1
XTP	25	288	6
STR	26	0	1
SI_	26	0	1	96	48	6
STR	26	96	5
SI_	26	96	5	96	48	2
STR	26	192	1
SI_	26	192	1	96	48	6
TAP	26	288	5
STR	27	0	4
SI_	27	0	4	96	48	0
STR	27	0	7
SI_	27	0	7	96	48	3
TAP	27	192	1
TAP	27	216	0
TAP	27	240	1
XTP	27	288	3
XTP	27	288	6
STR	28	0	5
SI_	28	0	5	96	48	0
STR	28	96	1
SI_	28	96	1	96	48	4
STR	28	192	6
SI_	28	192	6	96	48	3
STR	28	288	2
SI_	28	288	2	96	48	7
STR	29	0	4
SI_	29	0	4	96	48	1
SI_	29	0	4	96	48	7
TAP	29	192	0
TAP	29	216	7
TAP	29	240	0
XTP	29	288	1
XTP	29	288	6
TAP	30	0	2
TAP	30	0	3
TAP	30	48	1
TAP	30	96	2
TAP	30	96	3
TAP	30	144	4
TAP	30	192	2
TAP	30	192	3
TAP	30	240	1
TAP	30	288	2
TAP	30	288	3
TAP	30	336	5
TAP	31	0	3
TAP	31	0	4
TAP	31	48	2
TAP	31	96	3
TAP	31	96	4
TAP	31	144	5
TAP	31	192	3
TAP	31	192	4
TAP	31	240	2
TAP	31	288	3
TAP	31	288	4
TAP	31	336	6
TAP	32	0	4
TAP	32	0	5
TAP	32	48	3
TAP	32	96	4
TAP	32	96	5
TAP	32	144	6
TAP	32	192	4
TAP	32	192	5
TAP	32	240	3
TAP	32	288	4
TAP	32	288	5
TAP	32	336	6
TAP	33	0	3
TAP	33	0	4
TAP	33	48	2
TAP	33	96	3
TAP	33	96	4
TAP	33	144	5
TAP	33	192	3
TAP	33	216	4
TAP	33	240	3
XTP	33	288	0
XTP	33	288	5
HLD	34	0	2	192
TAP	34	0	3
TAP	34	96	1
STR	34	192	0
SI_	34	192	0	96	48	3
SCR	34	192	0	96	48	3
TAP	35	0	4
HLD	35	0	5	192
TAP	35	96	6
STR	35	192	7
SI_	35	192	7	96	48	4
SCL	35	192	7	96	48	4
TAP	36	0	0
TAP	36	48	0
STR	36	96	7
SSR	36	96	7	96	96	3
TAP	36	144	7
TAP	36	192	1
TAP	36	288	2
TTP	37	0	2	B	0	M1
TTP	37	0	2	E	0	M1
TTP	37	0	5	B	0	M1
TTP	37	0	6	E	0	M1
TAP	37	192	3
TAP	37	216	4
TAP	37	240	3
XTP	37	288	1
XTP	37	288	6
HLD	38	0	2	72
TAP	38	0	5
TAP	38	72	0
TAP	38	96	2
TAP	38	144	3
TAP	38	144	4
TAP	38	192	2
HLD	38	192	5	72
TAP	38	264	7
TAP	38	288	5
TAP	38	336	3
TAP	38	336	4
XST	39	0	2
SV_	39	0	2	96	48	4
XST	39	0	6
SV_	39	0	6	96	48	4
XST	39	96	2
SV_	39	96	2	96	48	0
XST	39	96	6
SV_	39	96	6	96	48	0
TTP	39	192	0	C	0	M1
TAP	39	288	7
TAP	39	336	6
XST	40	0	1
SV_	40	0	1	96	48	3
XST	40	0	5
SV_	40	0	5	96	48	3
XST	40	96	1
SV_	40	96	1	96	48	7
XST	40	96	5
SV_	40	96	5	96	48	7
TTP	40	192	0	C	0	M1
TAP	40	288	0
TAP	40	336	1
TAP	41	0	2
TAP	41	0	6
TAP	41	48	5
TAP	41	72	4
TAP	41	120	2
TAP	41	144	3
STR	41	192	2
SI_	41	192	2	96	48	7
STR	41	192	5
SI_	41	192	5	96	48	0
HLD	42	0	2	72
TAP	42	0	5
TAP	42	72	0
TAP	42	96	2
TAP	42	144	3
TAP	42	144	4
TAP	42	192	2
HLD	42	192	5	72
TAP	42	264	7
TAP	42	288	5
TAP	42	336	3
TAP	42	336	4
XST	43	0	2
SV_	43	0	2	96	48	4
XST	43	0	6
SV_	43	0	6	96	48	4
XST	43	96	2
SV_	43	96	2	96	48	0
XST	43	96	6
SV_	43	96	6	96	48	0
TTP	43	192	0	C	0	M1
TAP	43	288	7
TAP	43	336	6
XST	44	0	1
SV_	44	0	1	96	48	3
XST	44	0	5
SV_	44	0	5	96	48	3
XST	44	96	1
SV_	44	96	1	96	48	7
XST	44	96	5
SV_	44	96	5	96	48	7
TTP	44	192	0	C	0	M1
TAP	44	288	0
TAP	44	288	7
TAP	45	0	1
TAP	45	0	6
TAP	45	48	5
TAP	45	72	4
TAP	45	120	2
TAP	45	144	3
BRK	45	192	0
BRK	45	192	4
TAP	45	288	4
TAP	45	336	3
HLD	46	0	2	72
TAP	46	0	5
TAP	46	72	0
TAP	46	96	2
TAP	46	144	3
TAP	46	144	4
TAP	46	192	2
HLD	46	192	5	72
TAP	46	264	7
TAP	46	288	5
TAP	46	336	3
TAP	46	336	4
XST	47	0	2
SV_	47	0	2	96	48	4
XST	47	0	6
SV_	47	0	6	96	48	4
XST	47	96	2
SV_	47	96	2	96	48	1
XST	47	96	6
SV_	47	96	6	96	48	7
TTP	47	192	0	C	0	M1
TAP	47	288	0
TAP	47	336	7
XST	48	0	1
SV_	48	0	1	96	48	3
XST	48	0	5
SV_	48	0	5	96	48	3
XST	48	96	1
SV_	48	96	1	96	48	0
XST	48	96	5
SV_	48	96	5	96	48	6
TTP	48	192	0	C	0	M1
TAP	48	288	7
TAP	48	336	0
TAP	49	0	1
TAP	49	0	6
TAP	49	48	5
TAP	49	72	4
TAP	49	120	2
TAP	49	144	3
STR	49	192	2
SI_	49	192	2	96	48	7
STR	49	192	5
SI_	49	192	5	96	48	0
HLD	50	0	4	96
HLD	50	0	5	96
TAP	50	144	4
TAP	50	144	5
TAP	50	192	3
STR	50	192	6
SI_	50	192	6	96	96	2
STR	50	288	2
SI_	50	288	2	96	96	7
STR	51	0	7
SCL	51	0	7	96	96	3
STR	51	96	3
SSR	51	96	3	96	96	7
TAP	51	192	7
TAP	51	288	2
TAP	51	336	1
BRK	52	0	0
BST	52	0	6
SI_	52	0	6	96	24	3
TAP	52	72	0
TAP	52	144	0
BST	52	192	1
SI_	52	192	1	96	24	4
BRK	52	192	7
TAP	52	264	7
TAP	52	336	7
BRK	53	0	0
BST	53	0	6
SI_	53	0	6	96	24	3
TAP	53	72	0
TAP	53	144	0
BRK	53	192	1
BRK	53	192	7
TAP	53	288	6
TAP	53	336	5
XTP	54	0	3
XTP	54	0	4
TAP	54	48	2
TAP	54	96	1
TAP	54	144	0
STR	54	144	4
SLL	54	144	4	96	96	6
TAP	54	240	1
TAP	54	288	1
STR	55	0	3
SLR	55	0	3	96	96	1
TAP	55	0	7
TAP	55	96	6
TAP	55	144	6
TAP	55	240	4
TAP	55	288	3
TAP	55	336	2
STR	56	0	1
SI_	56	0	1	96	24	4
TAP	56	0	7
TAP	56	72	6
TAP	56	144	5
STR	56	192	4
SI_	56	192	4	96	24	1
TAP	56	192	6
TAP	56	264	7
TAP	56	336	0
STR	57	0	1
SI_	57	0	1	96	24	4
TAP	57	0	7
TAP	57	72	6
TAP	57	144	5
TAP	57	192	3
TAP	57	192	4
BRK	57	240	1
BRK	57	240	6
BRK	57	288	1
BRK	57	288	6
XTP	58	0	2
XTP	58	0	3
TAP	58	48	4
TAP	58	96	5
STR	58	144	3
SLR	58	144	3	96	96	1
TAP	58	144	6
TAP	58	240	7
TAP	58	288	7
TAP	59	0	1
STR	59	0	4
SLL	59	0	4	96	96	6
TAP	59	96	0
TAP	59	144	0
TAP	59	240	3
TAP	59	288	4
TAP	59	336	5
TAP	60	0	0
STR	60	0	6
SI_	60	0	6	96	24	3
TAP	60	72	1
TAP	60	144	2
TAP	60	192	1
STR	60	192	3
SI_	60	192	3	96	24	6
TAP	60	264	0
TAP	60	336	7
XST	61	0	6
SI_	61	0	6	96	48	4
XTP	61	96	6
XST	61	96	7
SI_	61	96	7	96	48	3
XST	61	192	0
SI_	61	192	0	96	48	2
XTP	61	192	7
XTP	61	288	0
XTP	61	288	1
HLD	62	0	2	192
TAP	62	0	3
TAP	62	96	1
STR	62	192	0
SI_	62	192	0	96	48	3
SCR	62	192	0	96	48	3
TAP	63	0	4
HLD	63	0	5	192
TAP	63	96	6
STR	63	192	7
SI_	63	192	7	96	48	4
SCL	63	192	7	96	48	4
TAP	64	0	0
TAP	64	48	0
STR	64	96	7
SSR	64	96	7	96	96	3
TAP	64	144	7
TAP	64	192	1
TAP	64	288	2
TTP	65	0	2	B	0	M1
TTP	65	0	2	E	0	M1
TTP	65	0	5	B	0	M1
TTP	65	0	6	E	0	M1
TAP	65	240	3
TAP	65	240	4
HLD	65	288	2	768
TAP	65	288	5
TTP	66	0	0	C	0	M1
TTP	66	96	0	C	0	M1
TTP	66	192	0	C	0	M1
TTP	66	288	0	C	0	M1
TTP	67	0	0	C	0	M1
TTP	67	96	0	C	0	M1
TTP	67	192	0	C	0	M1
TTP	67	288	0	C	0	M1
TAP	68	0	2
TAP	68	0	3
TAP	68	96	1
TAP	68	96	2
TAP	68	192	0
TAP	68	192	1
TAP	68	288	0
TAP	68	288	7
STR	69	0	1
SV_	69	0	1	96	96	2
STR	69	0	6
SV_	69	0	6	96	96	5
TAP	69	288	2
HLD	69	288	5	768
TTP	70	0	0	C	0	M1
TTP	70	96	0	C	0	M1
TTP	70	192	0	C	0	M1
TTP	70	288	0	C	0	M1
TTP	71	0	0	C	0	M1
TTP	71	96	0	C	0	M1
TTP	71	192	0	C	0	M1
TTP	71	288	0	C	0	M1
TAP	72	0	4
TAP	72	0	5
TAP	72	96	5
TAP	72	96	6
STR	72	192	6
SCL	72	192	6	96	48	4
STR	72	192	7
SUL	72	192	7	96	48	3
XST	73	0	1
SI_	73	0	1	96	48	3
XST	73	96	0
SI_	73	96	0	96	48	4
XTP	73	96	1
XTP	73	192	0
XST	73	192	7
SF_	73	192	7	96	48	3
BRK	73	288	7
XHO	74	0	2	72
XTP	74	0	5
TAP	74	72	0
TAP	74	96	2
TAP	74	144	3
TAP	74	144	4
TAP	74	192	2
HLD	74	192	5	72
TAP	74	264	7
TAP	74	288	5
TAP	74	336	3
TAP	74	336	4
XST	75	0	2
SV_	75	0	2	96	48	3
XST	75	0	6
SV_	75	0	6	96	48	5
XST	75	96	2
SV_	75	96	2	96	48	1
XST	75	96	6
SV_	75	96	6	96	48	7
TTP	75	192	0	C	0	M1
TAP	75	288	0
TAP	75	336	7
XST	76	0	1
SV_	76	0	1	96	48	2
XST	76	0	5
SV_	76	0	5	96	48	4
XST	76	96	1
SV_	76	96	1	96	48	0
XST	76	96	5
SV_	76	96	5	96	48	6
TTP	76	192	0	C	0	M1
TAP	76	288	7
TAP	76	336	0
TAP	77	0	1
TAP	77	0	6
TAP	77	48	5
TAP	77	72	4
TAP	77	120	2
TAP	77	144	3
STR	77	192	2
SI_	77	192	2	96	48	7
STR	77	192	5
SI_	77	192	5	96	48	0
HLD	78	0	4	96
HLD	78	0	5	96
TAP	78	144	4
TAP	78	144	5
TAP	78	192	3
STR	78	192	6
SI_	78	192	6	96	96	2
STR	78	288	2
SI_	78	288	2	96	96	7
STR	79	0	7
SCL	79	0	7	96	96	3
STR	79	96	3
SSR	79	96	3	96	96	7
TAP	79	192	7
TAP	79	288	2
TAP	79	336	1
BRK	80	0	0
BST	80	0	6
SI_	80	0	6	96	24	3
TAP	80	72	1
TAP	80	144	2
BST	80	192	1
SI_	80	192	1	96	24	4
BRK	80	192	7
TAP	80	264	6
TAP	80	336	5
BRK	81	0	0
BST	81	0	6
SI_	81	0	6	96	24	3
TAP	81	72	1
TAP	81	144	2
BST	81	192	1
SI_	81	192	1	96	24	4
BRK	81	192	7
TAP	81	264	6
TAP	81	336	5
BST	82	0	6
SI_	82	0	6	96	24	2
BST	82	0	7
SI_	82	0	7	96	24	3
TAP	82	72	6
TAP	82	72	7
BST	82	192	0
SI_	82	192	0	96	24	4
BST	82	192	1
SI_	82	192	1	96	24	5
TAP	82	264	0
TAP	82	264	1
BRK	83	0	0
BRK	83	0	7
TAP	83	72	4
TAP	83	72	6
TAP	83	144	1
TAP	83	144	3
BRK	83	192	0
BRK	83	192	7
TAP	84	0	1
TAP	84	0	3
TAP	84	96	0
STR	84	96	1
SXL	84	96	1	96	144	5
TAP	84	192	6
TAP	84	264	7
TAP	84	336	0
TAP	85	48	4
TAP	85	48	6
TAP	85	96	4
TAP	85	96	6
TAP	85	192	1
TAP	85	192	4
TAP	85	240	2
TAP	85	264	3
TAP	85	288	2
TAP	86	0	3
TAP	86	0	4
TAP	86	96	4
TAP	86	96	5
TAP	86	192	5
HLD	86	192	6	72
HLD	86	264	7	72
STR	86	336	0
SI_	86	336	0	96	48	4
TAP	87	48	3
TAP	87	96	2
TAP	87	144	1
XST	87	192	0
SI_	87	192	0	96	48	4
XST	87	192	5
SI_	87	192	5	96	48	7
XTP	87	288	0
XTP	87	288	5
TAP	88	0	4
TAP	88	0	6
STR	88	96	6
SXR	88	96	6	96	144	2
TAP	88	96	7
TAP	88	192	1
TAP	88	264	0
TAP	88	336	7
TAP	89	48	1
TAP	89	48	3
TAP	89	96	1
TAP	89	96	3
TAP	89	192	3
TAP	89	192	6
TAP	89	240	5
TAP	89	264	4
TAP	89	288	5
TAP	90	0	3
TAP	90	0	4
TAP	90	96	2
TAP	90	96	3
HLD	90	192	1	72
TAP	90	192	2
HLD	90	264	0	72
TAP	90	336	7
XST	91	0	6
SI_	91	0	6	96	48	2
XTP	91	0	7
XST	91	96	0
SI_	91	96	0	96	48	4
XTP	91	96	6
XTP	91	192	0
STR	91	192	7
SI_	91	192	7	96	48	2
XTP	91	288	3
XTP	91	288	7
BRK	92	0	1
BRK	92	0	7

T_REC_TAP	392
T_REC_BRK	24
T_REC_XTP	37
T_REC_HLD	38
T_REC_XHO	1
T_REC_STR	63
T_REC_BST	11
T_REC_XST	47
T_REC_TTP	34
T_REC_THO	0
T_REC_SLD	128
T_REC_ALL	775
T_NUM_TAP	573
T_NUM_BRK	35
T_NUM_HLD	39
T_NUM_SLD	128
T_NUM_ALL	775
T_JUDGE_TAP	608
T_JUDGE_HLD	122
T_JUDGE_SLD	128
T_JUDGE_ALL	858
TTM_EACHPAIRS	186
TTM_SCR_TAP	286500
TTM_SCR_BRK	91000
TTM_SCR_HLD	39000
TTM_SCR_SLD	192000
TTM_SCR_ALL	608500
TTM_SCR_S	586850
TTM_SCR_SS	605000
TTM_RAT_ACV	10057

