VERSION	0.00.00	1.03.00
FES_MODE	0
BPM_DEF	180.000	180.000	180.000	180.000
MET_DEF	4	4
RESOLUTION	384
CLK_DEF	384
COMPATIBLE_CODE	MA2

BPM	0	0	180.000
MET	0	0	4	4

TTP	1	0	0	C	1	M1
TAP	1	192	0
TAP	1	192	7
TAP	1	288	2
TAP	1	288	5
TAP	2	0	4
TAP	2	0	6
TAP	2	96	1
TAP	2	96	3
HLD	2	192	7	72
HLD	2	264	5	72
TAP	2	336	4
TAP	3	48	0
TAP	3	96	0
TAP	3	192	1
TAP	3	192	7
TAP	3	288	4
TAP	3	288	5
TAP	4	0	1
TAP	4	0	3
TAP	4	96	4
TAP	4	96	6
HLD	4	192	0	72
HLD	4	264	2	72
TAP	4	336	3
TAP	5	48	7
TAP	5	96	7
TAP	5	144	0
TAP	5	192	0
TAP	5	288	2
TAP	5	288	5
TAP	6	0	1
TAP	6	0	3
TAP	6	96	4
TAP	6	96	6
HLD	6	192	0	72
HLD	6	264	2	72
TAP	6	336	3
TAP	7	48	7
TAP	7	96	7
TAP	7	192	0
TAP	7	192	6
TAP	7	288	2
TAP	7	288	3
TAP	8	0	4
TAP	8	0	6
TAP	8	96	1
TAP	8	96	3
HLD	8	192	7	72
HLD	8	264	5	72
TAP	8	336	4
TAP	9	0	4
TAP	9	96	2
TAP	9	96	3
TAP	9	192	0
TAP	9	192	1
TAP	9	288	6
TAP	9	288	7
HLD	10	0	5	1344
TAP	10	96	4
TAP	10	192	4
TAP	10	288	4
TAP	11	0	4
TAP	11	96	2
TAP	11	192	6
TAP	11	288	0
TAP	12	0	0
TAP	12	96	0
TAP	12	192	0
TAP	12	288	0
TAP	13	0	6
TAP	13	96	2
TAP	13	192	3
TTP	13	288	4	E	0	M1
HLD	14	0	2	1344
TAP	14	96	3
TAP	14	192	3
TAP	14	288	3
TAP	15	0	3
TAP	15	96	5
TAP	15	192	1
TAP	15	288	7
TAP	16	0	7
TAP	16	96	7
TAP	16	192	7
TAP	16	288	7
TAP	17	0	1
TAP	17	96	5
TAP	17	192	5
TAP	17	288	3
TAP	17	288	4
TAP	18	0	2
TAP	18	0	4
TAP	18	96	3
TAP	18	96	5
HLD	18	192	1	72
HLD	18	264	2	72
TAP	18	336	3
TAP	19	48	7
TAP	19	96	7
TAP	19	144	0
TAP	19	192	1
TAP	19	288	2
TAP	19	288	4
TAP	20	0	3
TAP	20	0	5
TAP	20	96	2
TAP	20	96	4
HLD	20	192	6	72
HLD	20	264	5	72
TAP	20	336	4
TAP	21	48	0
TAP	21	96	0
TAP	21	144	7
TAP	21	192	6
TTP	21	288	4	E	0	M1
TAP	22	0	3
TAP	22	0	5
TAP	22	96	2
TAP	22	96	4
HLD	22	192	6	72
HLD	22	264	5	72
TAP	22	336	4
TAP	23	48	0
TAP	23	96	0
TAP	23	144	7
TAP	23	192	6
TAP	23	288	3
TAP	23	288	5
HLD	24	0	1	336
TAP	24	0	4
TTP	24	336	0	C	1	M1
TAP	25	192	2
TAP	25	192	5
STR	26	0	4
SCR	26	0	4	96	96	7
STR	26	192	0
SCR	26	192	0	96	96	3
TAP	27	0	4
TAP	27	96	5
TAP	27	192	4
HLD	27	192	6	96
TAP	27	288	4
STR	28	0	3
SCL	28	0	3	96	96	0
STR	28	192	7
SCL	28	192	7	96	96	4
TAP	29	0	3
TAP	29	96	2
TAP	29	192	1
TAP	29	192	3
TAP	29	288	0
HLD	30	0	7	192
TAP	30	96	5
HLD	30	192	0	192
TAP	30	288	2
HLD	31	0	6	192
TAP	31	96	4
HLD	31	192	1	192
TAP	31	288	3
HLD	32	0	4	192
TAP	32	96	5
HLD	32	192	3	192
TAP	32	288	2
TAP	33	0	4
TAP	33	96	2
TAP	33	96	5
TAP	33	192	1
TAP	33	192	6
HLD	34	0	0	96
HLD	34	96	1	96
HLD	34	192	2	96
HLD	34	288	3	96
HLD	35	0	4	96
HLD	35	96	5	96
HLD	35	192	6	96
HLD	35	288	7	96
TAP	36	0	0
TAP	36	48	0
TAP	36	96	0
TAP	36	96	7
TAP	36	192	2
TAP	36	192	5
TAP	36	288	3
TAP	36	288	4
XTP	37	0	1
XTP	37	0	6
TAP	37	288	2
TAP	37	288	5
TAP	38	0	6
TAP	38	0	7
TAP	38	96	3
TAP	38	96	4
TAP	38	192	0
TAP	38	192	1
TAP	38	288	3
TAP	38	288	4
TAP	39	0	6
TAP	39	0	7
TAP	39	96	4
TAP	39	96	5
TAP	39	192	3
TAP	39	192	6
TAP	39	288	2
TAP	39	288	3
TAP	40	0	0
TAP	40	0	1
TAP	40	96	2
TAP	40	96	3
TAP	40	192	1
TAP	40	192	4
TAP	40	288	5
TAP	40	336	5
TAP	41	0	4
TAP	41	96	0
TAP	41	96	7
BRK	41	192	1
BRK	41	192	5
TAP	42	0	2
HLD	42	0	6	96
TAP	42	96	4
HLD	42	192	1	96
TAP	42	192	5
TAP	42	288	3
TAP	43	0	0
TAP	43	0	1
TAP	43	96	2
TAP	43	96	3
TAP	43	192	1
TAP	43	192	4
TAP	43	288	4
TAP	43	288	5
TAP	44	0	6
TAP	44	0	7
TAP	44	96	4
TAP	44	96	5
TAP	44	192	3
TAP	44	192	6
TAP	44	288	1
TAP	44	288	4
XTP	45	0	0
XTP	45	0	7
XTP	45	72	0
XTP	45	72	7
XTP	45	144	1
XTP	45	144	6
XTP	45	192	1
XTP	45	192	6
TAP	46	0	0
TAP	46	0	1
TAP	46	96	3
TAP	46	96	4
TAP	46	192	6
TAP	46	192	7
TAP	46	288	3
TAP	46	288	4
TAP	47	0	0
TAP	47	0	1
TAP	47	96	2
TAP	47	96	3
TAP	47	192	1
TAP	47	192	4
TAP	47	288	4
TAP	47	288	5
TAP	48	0	6
TAP	48	0	7
TAP	48	96	4
TAP	48	96	5
TAP	48	192	3
TAP	48	192	6
TAP	48	288	2
TAP	48	336	2
TAP	49	0	3
TAP	49	96	0
TAP	49	96	7
BRK	49	192	2
BRK	49	192	6
TAP	50	0	4
HLD	50	0	5	96
TAP	50	96	1
HLD	50	192	2	96
TAP	50	192	3
TAP	50	288	6
TAP	51	0	6
TAP	51	0	7
TAP	51	96	4
TAP	51	96	5
TAP	51	192	3
TAP	51	192	6
TAP	51	288	7
TAP	51	336	7
STR	52	0	0
SI_	52	0	0	96	96	4
TAP	52	144	6
STR	52	192	6
SI_	52	192	6	96	96	2
TAP	52	336	1
STR	53	0	1
SI_	53	0	1	96	96	5
XTP	53	144	7
XTP	53	192	7
TAP	53	336	1
TAP	54	0	1
TAP	54	48	7
HLD	54	144	0	96
TAP	54	240	3
TAP	54	288	3
HLD	55	0	6	96
TAP	55	96	4
TAP	55	144	4
TAP	55	240	3
TAP	55	288	3
TAP	55	288	4
STR	56	0	5
SI_	56	0	5	96	96	0
TAP	56	144	2
STR	56	192	2
SI_	56	192	2	96	96	7
TAP	56	336	5
STR	57	0	5
SI_	57	0	5	96	96	0
TAP	57	144	2
HLD	57	192	2	96
TAP	57	288	3
TAP	57	336	3
TAP	58	0	0
TAP	58	48	0
HLD	58	144	7	96
TAP	58	240	4
TAP	58	288	4
HLD	59	0	1	96
TAP	59	96	3
TAP	59	144	3
TAP	59	240	4
TAP	59	288	3
TAP	59	288	4
STR	60	0	2
SI_	60	0	2	96	96	7
TAP	60	144	5
STR	60	192	5
SI_	60	192	5	96	96	0
TAP	60	336	2
TAP	61	0	2
TAP	61	96	2
TAP	61	96	3
TAP	61	192	4
TAP	61	192	5
TAP	61	288	6
TAP	61	288	7
HLD	62	0	7	96
HLD	62	96	6	96
HLD	62	192	5	96
HLD	62	288	4	96
HLD	63	0	3	96
HLD	63	96	2	96
HLD	63	192	1	96
HLD	63	288	0	96
TAP	64	0	7
TAP	64	48	7
TAP	64	96	0
TAP	64	96	7
TAP	64	192	2
TAP	64	192	5
TAP	64	288	3
TAP	64	288	4
BRK	65	0	1
BRK	65	0	6
TAP	65	288	3
TAP	65	288	4
TTP	66	0	5	B	0	M1
TTP	66	96	4	B	0	M1
TTP	66	192	3	B	0	M1
TTP	66	288	2	B	0	M1
TTP	67	0	6	E	0	M1
TTP	67	96	5	E	0	M1
TTP	67	192	3	E	0	M1
TTP	67	288	2	E	0	M1
TTP	68	0	5	B	0	M1
TTP	68	0	6	B	0	M1
TTP	68	96	4	B	0	M1
TTP	68	192	3	B	0	M1
TTP	68	288	1	B	0	M1
TTP	68	288	2	B	0	M1
TTP	69	0	6	E	0	M1
TTP	69	0	7	E	0	M1
TTP	69	96	5	E	0	M1
TTP	69	192	3	E	0	M1
TTP	69	288	1	E	0	M1
TTP	69	288	2	E	0	M1
TTP	70	0	5	B	0	M1
TTP	70	0	6	B	0	M1
TTP	70	96	4	B	0	M1
TTP	70	192	3	B	0	M1
TTP	70	288	1	B	0	M1
TTP	70	288	2	B	0	M1
TTP	71	0	6	E	0	M1
TTP	71	96	5	E	0	M1
TTP	71	192	3	E	0	M1
TTP	71	288	2	E	0	M1
TTP	72	0	4	B	0	M1
TTP	72	0	5	B	0	M1
TTP	72	96	2	B	0	M1
TTP	72	96	3	B	0	M1
TTP	72	192	0	C	0	M1
TTP	72	288	4	E	0	M1
XTP	73	0	0
XTP	73	0	7
XTP	73	96	2
XTP	73	96	5
XTP	73	192	3
XTP	73	192	4
BRK	73	288	1
BRK	73	288	6
STR	74	0	0
SI_	74	0	0	96	48	4
STR	74	0	1
SI_	74	0	1	96	48	3
STR	74	192	6
SI_	74	192	6	96	48	4
STR	74	192	7
SI_	74	192	7	96	48	3
TAP	75	0	2
TAP	75	0	3
TAP	75	96	4
TAP	75	96	5
TAP	75	192	3
TAP	75	192	7
TAP	75	288	1
TAP	75	288	4
TAP	76	0	4
TAP	76	0	5
TAP	76	96	2
TAP	76	96	3
TAP	76	192	0
TAP	76	192	4
STR	76	288	3
SCL	76	288	3	96	96	0
STR	76	288	4
SCR	76	288	4	96	96	7
BRK	77	192	0
BRK	77	192	7
HLD	78	0	6	96
HLD	78	96	4	96
HLD	78	192	5	96
HLD	78	288	3	96
HLD	79	0	7	96
HLD	79	96	1	96
TAP	79	192	5
TAP	79	288	7
TAP	79	336	7
XTP	80	0	0
XTP	80	72	0
XTP	80	144	0
XTP	80	192	7
XTP	80	264	7
XTP	80	336	7
TAP	81	0	0
TAP	81	0	6
TAP	81	72	0
TAP	81	72	6
TAP	81	144	0
TAP	81	144	6
TAP	81	192	1
TAP	81	192	7
TAP	81	264	1
TAP	81	264	7
TAP	81	336	1
TAP	81	336	7
TAP	82	0	6
TAP	82	0	7
TAP	82	72	0
TAP	82	72	5
TAP	82	144	1
TAP	82	144	4
TAP	82	192	0
TAP	82	192	1
TAP	82	264	2
TAP	82	264	7
TAP	82	336	3
TAP	82	336	6
TAP	83	0	0
TAP	83	0	7
TAP	83	72	2
TAP	83	72	5
BRK	83	144	3
BRK	83	144	4
BRK	83	192	3
BRK	83	192	4
TAP	84	0	1
TAP	84	0	3
TAP	84	96	4
TAP	84	96	6
HLD	84	192	3	72
HLD	84	264	1	72
TAP	84	336	0
TAP	85	48	7
TAP	85	96	7
TAP	85	192	0
TAP	85	192	6
TAP	85	288	2
TAP	85	288	3
TAP	86	0	4
TAP	86	0	6
TAP	86	96	1
TAP	86	96	3
HLD	86	192	4	72
HLD	86	264	6	72
TAP	86	336	7
TAP	87	48	0
TAP	87	96	0
TAP	87	144	7
TAP	87	192	7
TAP	87	288	2
TAP	87	288	5
TAP	88	0	4
TAP	88	0	6
TAP	88	96	1
TAP	88	96	3
HLD	88	192	4	72
HLD	88	264	6	72
TAP	88	336	7
TAP	89	48	0
TAP	89	96	0
TAP	89	192	1
TAP	89	192	7
TAP	89	288	4
TAP	89	288	5
TAP	90	0	1
TAP	90	0	3
TAP	90	96	4
TAP	90	96	6
HLD	90	192	3	72
HLD	90	264	1	72
TAP	90	336	0
TAP	91	0	0
TAP	91	96	6
TAP	91	96	7
TAP	91	192	4
TAP	91	192	5
TAP	91	288	2
TAP	91	288	3
BRK	92	0	0
BRK	92	0	4

T_REC_TAP	364
T_REC_BRK	16
T_REC_XTP	24
T_REC_HLD	63
T_REC_XHO	0
T_REC_STR	18
T_REC_BST	0
T_REC_XST	0
T_REC_TTP	40
T_REC_THO	0
T_REC_SLD	18
T_REC_ALL	543
T_NUM_TAP	446
T_NUM_BRK	16
T_NUM_HLD	63
T_NUM_SLD	18
T_NUM_ALL	543
T_JUDGE_TAP	462
T_JUDGE_HLD	195
T_JUDGE_SLD	18
T_JUDGE_ALL	675
TTM_EACHPAIRS	141
TTM_SCR_TAP	223000
TTM_SCR_BRK	41600
TTM_SCR_HLD	63000
TTM_SCR_SLD	27000
TTM_SCR_ALL	354600
TTM_SCR_S	342450
TTM_SCR_SS	353000
TTM_RAT_ACV	10045

