VERSION	0.00.00	1.03.00
FES_MODE	0
BPM_DEF	180.000	180.000	180.000	180.000
MET_DEF	4	4
RESOLUTION	384
CLK_DEF	384
COMPATIBLE_CODE	MA2

BPM	0	0	180.000
MET	0	0	4	4

TAP	2	0	2
TAP	2	96	2
TAP	2	192	2
TAP	3	0	4
TAP	3	96	4
TAP	3	192	4
TAP	4	0	3
TAP	4	96	3
TAP	4	192	3
TAP	5	0	5
TAP	5	96	5
TAP	5	192	4
TAP	5	192	5
TAP	6	0	6
TAP	6	96	6
TAP	6	192	6
TAP	7	0	0
TAP	7	96	0
TAP	7	192	0
TAP	8	0	6
TAP	8	0	7
TAP	8	192	0
TAP	8	192	1
XTP	9	0	7
XTP	9	96	0
XTP	9	192	0
XTP	9	192	7
HLD	10	0	2	192
TAP	10	192	3
HLD	11	0	5	192
TAP	11	192	4
HLD	12	0	2	192
TAP	12	192	3
TAP	13	0	1
TAP	13	96	1
TAP	13	192	0
XTP	13	288	0
HLD	14	0	6	192
TAP	14	192	7
HLD	15	0	1	192
TAP	15	192	0
HLD	16	0	7	192
HLD	16	192	0	192
TAP	17	0	7
TAP	17	96	7
TAP	17	192	0
TAP	17	192	7
HLD	18	0	6	192
TAP	18	192	7
HLD	19	0	1	192
TAP	19	192	0
HLD	20	0	2	192
HLD	20	0	3	192
TAP	21	0	4
TAP	21	96	4
TAP	21	192	5
XTP	21	288	5
HLD	22	0	6	192
TAP	22	192	4
HLD	23	0	1	192
TAP	23	192	3
HLD	24	0	2	192
HLD	24	0	5	192
TAP	25	0	3
TAP	25	0	4
TAP	25	96	3
TAP	25	96	4
XTP	25	192	2
XTP	25	192	5
TTP	26	0	2	E	0	L1
TTP	26	192	3	E	0	L1
TTP	27	0	4	E	0	L1
TTP	27	192	5	E	0	L1
TTP	28	0	6	E	0	L1
TTP	28	192	7	E	0	L1
THO	29	0	0	192	C	0	L1
TTP	30	0	1	B	0	L1
TTP	30	0	1	E	0	L1
TTP	30	192	5	B	0	L1
TTP	30	192	6	B	0	L1
TTP	31	0	3	B	0	L1
TTP	31	0	3	E	0	L1
TTP	31	192	0	C	0	L1
TTP	32	0	6	B	0	L1
TTP	32	0	7	E	0	L1
TTP	32	192	1	B	0	L1
TTP	32	192	2	B	0	L1
THO	33	0	0	192	C	0	L1
TTP	34	0	6	E	0	L1
TTP	34	96	5	B	0	L1
TTP	34	192	4	B	0	L1
TTP	35	0	3	E	0	L1
TTP	35	96	2	B	0	L1
TTP	35	192	1	B	0	L1
TTP	36	0	0	E	0	L1
TTP	36	192	1	E	0	L1
TTP	36	192	7	E	0	L1
TTP	37	0	0	C	1	L1
TTP	37	0	2	B	0	L1
TTP	37	0	5	B	0	L1
TAP	38	0	0
TAP	38	96	1
TAP	38	192	2
TAP	38	288	3
TAP	39	0	4
TAP	39	0	5
TAP	39	96	4
TAP	39	96	5
XTP	39	192	3
XTP	39	192	6
TAP	40	0	2
TAP	40	0	3
TAP	40	96	2
TAP	40	96	3
XTP	40	192	1
XTP	40	192	4
TAP	41	0	4
TAP	41	96	3
TAP	41	192	2
TAP	41	192	5
TAP	42	0	7
TAP	42	96	6
TAP	42	192	5
TAP	42	288	4
TAP	43	0	2
TAP	43	0	3
TAP	43	96	2
TAP	43	96	3
XTP	43	192	1
XTP	43	192	4
TAP	44	0	4
TAP	44	0	5
TAP	44	96	4
TAP	44	96	5
XTP	44	192	3
XTP	44	192	6
HLD	45	0	0	96
HLD	45	0	7	96
BRK	45	192	1
BRK	45	192	6
TAP	46	0	2
TAP	46	96	1
TAP	46	192	0
TAP	46	192	1
TAP	46	288	0
TAP	46	288	1
TAP	47	0	6
TAP	47	0	7
TAP	47	96	6
TAP	47	96	7
XTP	47	192	0
XTP	47	192	5
TAP	48	0	0
TAP	48	0	1
TAP	48	96	0
TAP	48	96	1
XTP	48	192	2
XTP	48	192	7
HLD	49	0	3	96
HLD	49	0	4	96
XTP	49	192	2
XTP	49	192	5
TAP	50	0	2
TAP	50	96	2
TAP	50	96	3
TAP	50	192	5
TAP	50	288	4
TAP	50	288	5
TAP	51	0	2
TAP	51	96	2
TAP	51	96	3
XTP	51	192	1
XTP	51	192	4
XTP	52	0	3
XTP	52	0	6
XTP	52	192	1
XTP	52	192	4
HLD	53	0	0	96
HLD	53	0	7	96
BRK	53	192	1
BRK	53	192	6
HLD	54	0	2	192
TAP	54	96	3
TAP	54	192	4
HLD	55	0	5	192
TAP	55	96	4
TAP	55	192	3
XTP	56	0	1
XTP	56	0	3
XTP	56	192	4
XTP	56	192	6
TAP	57	0	2
TAP	57	96	2
TAP	57	192	1
TAP	57	192	3
HLD	58	0	1	192
TAP	58	96	0
TAP	58	192	7
HLD	59	0	6	192
TAP	59	96	7
TAP	59	192	0
XTP	60	0	1
XTP	60	0	3
XTP	60	192	4
XTP	60	192	6
TAP	61	0	3
TAP	61	96	4
XTP	61	192	2
XTP	61	192	5
TTP	62	0	2	E	0	L1
TTP	62	192	0	B	0	L1
TTP	62	192	1	E	0	L1
TTP	63	0	6	E	0	L1
TTP	63	192	7	B	0	L1
TTP	63	192	7	E	0	L1
TTP	64	0	5	E	0	L1
TTP	64	96	4	E	0	L1
TTP	64	192	3	E	0	L1
TTP	65	0	0	C	0	L1
TTP	65	0	2	B	0	L1
TTP	65	0	5	B	0	L1
STR	66	0	1
SI_	66	0	1	96	192	4
STR	67	0	5
SI_	67	0	5	96	192	0
STR	68	0	1
SCR	68	0	1	96	192	4
TAP	69	0	5
TAP	69	96	5
TAP	69	192	5
STR	70	0	7
SI_	70	0	7	96	192	3
STR	71	0	2
SI_	71	0	2	96	192	6
HLD	72	0	7	192
HLD	72	192	0	192
TAP	73	0	7
TAP	73	96	0
TAP	73	96	7
BRK	73	192	1
BRK	73	192	6
TAP	74	0	2
TAP	74	96	1
TAP	74	96	3
TAP	74	192	5
TAP	74	288	4
TAP	74	288	6
TAP	75	0	6
TAP	75	0	7
TAP	75	96	0
TAP	75	96	5
XTP	75	192	1
XTP	75	192	4
TAP	76	0	0
TAP	76	0	1
TAP	76	96	2
TAP	76	96	7
XTP	76	192	3
XTP	76	192	6
TAP	77	0	3
TAP	77	0	4
TAP	77	96	2
TAP	77	96	5
XTP	77	192	1
XTP	77	192	6
TAP	78	0	1
TAP	78	96	0
TAP	78	96	1
TAP	78	192	6
TAP	78	288	6
TAP	78	288	7
TAP	79	0	1
TAP	79	96	0
TAP	79	96	1
XTP	79	192	2
XTP	79	192	7
XTP	80	0	0
XTP	80	0	5
XTP	80	192	2
XTP	80	192	7
XTP	81	0	1
XTP	81	0	4
XTP	81	192	3
XTP	81	192	6
XHO	82	0	4	96
XHO	82	0	5	96
XHO	82	192	2	96
XHO	82	192	3	96
XTP	83	0	3
XTP	83	0	4
XTP	83	96	2
XTP	83	96	5
BRK	83	192	1
BRK	83	192	6
TAP	84	0	1
TAP	84	96	2
TAP	84	192	3
TAP	84	288	4
TAP	85	0	3
TAP	85	96	2
TAP	85	192	1
TAP	85	192	4
TAP	86	0	6
TAP	86	96	5
TAP	86	192	4
TAP	86	288	3
TAP	87	0	4
TAP	87	96	5
XTP	87	192	3
XTP	87	192	6
HLD	88	0	2	96
TAP	88	96	3
TAP	88	192	1
TAP	88	192	4
HLD	89	0	5	96
TAP	89	96	4
TAP	89	192	3
TAP	89	192	6
HLD	90	0	1	96
TAP	90	96	0
TAP	90	192	2
TAP	90	192	7
XTP	91	0	1
XTP	91	0	6
XTP	91	96	1
XTP	91	96	6
XTP	91	192	2
XTP	91	192	5
XTP	91	288	3
XTP	91	288	4
BRK	92	0	1
BRK	92	0	6

T_REC_TAP	167
T_REC_BRK	10
T_REC_XTP	68
T_REC_HLD	30
T_REC_XHO	4
T_REC_STR	5
T_REC_BST	0
T_REC_XST	0
T_REC_TTP	41
T_REC_THO	2
T_REC_SLD	5
T_REC_ALL	332
T_NUM_TAP	281
T_NUM_BRK	10
T_NUM_HLD	36
T_NUM_SLD	5
T_NUM_ALL	332
T_JUDGE_TAP	291
T_JUDGE_HLD	118
T_JUDGE_SLD	5
T_JUDGE_ALL	414
TTM_EACHPAIRS	85
TTM_SCR_TAP	140500
TTM_SCR_BRK	26000
TTM_SCR_HLD	36000
TTM_SCR_SLD	7500
TTM_SCR_ALL	210000
TTM_SCR_S	202750
TTM_SCR_SS	209000
TTM_RAT_ACV	10047

