VERSION	0.00.00	1.03.00
FES_MODE	0
BPM_DEF	180.000	180.000	180.000	180.000
MET_DEF	4	4
RESOLUTION	384
CLK_DEF	384
COMPATIBLE_CODE	MA2

BPM	0	0	180.000
MET	0	0	4	4

TAP	2	0	3
TAP	2	192	3
TAP	3	0	3
TAP	4	0	4
TAP	4	192	4
TAP	5	0	4
TAP	6	0	3
TAP	6	192	3
TAP	7	0	3
TAP	7	0	4
TAP	8	0	4
TAP	8	192	4
HLD	9	0	3	192
HLD	9	0	4	192
TAP	10	0	3
TAP	10	192	3
TAP	11	0	2
TAP	11	192	2
TAP	12	0	1
TAP	12	192	1
HLD	13	0	0	192
HLD	13	0	7	192
TAP	14	0	7
TAP	14	192	7
TAP	15	0	6
TAP	15	192	6
TAP	16	0	5
TAP	16	192	5
HLD	17	0	3	192
HLD	17	0	4	192
TAP	18	0	4
TAP	18	96	4
TAP	18	192	4
TAP	19	0	5
TAP	19	96	5
TAP	19	192	5
TAP	20	0	6
TAP	20	96	6
TAP	20	192	6
HLD	21	0	0	192
HLD	21	0	7	192
TAP	22	0	0
TAP	22	96	0
TAP	22	192	0
TAP	23	0	1
TAP	23	96	1
TAP	23	192	1
BRK	24	0	2
XTP	25	0	4
XTP	25	96	3
XTP	25	192	4
TTP	26	0	3	B	0	L1
TTP	27	0	2	B	0	L1
TTP	28	0	1	B	0	L1
TTP	29	0	0	B	0	L1
TTP	30	0	7	B	0	L1
TTP	31	0	6	B	0	L1
TTP	32	0	5	B	0	L1
TTP	33	0	4	B	0	L1
TTP	34	0	2	B	0	L1
TTP	34	0	3	B	0	L1
TTP	35	0	4	B	0	L1
TTP	35	0	5	B	0	L1
THO	36	0	0	384	C	1	L1
TAP	38	0	7
TAP	38	96	7
TAP	38	192	7
TAP	39	0	6
TAP	39	96	6
XTP	39	192	6
XTP	39	192	7
TAP	40	0	5
TAP	40	96	5
XTP	40	192	4
XTP	40	192	5
TAP	41	0	3
TAP	41	96	4
TAP	41	192	3
TAP	42	0	3
TAP	42	96	3
TAP	42	192	3
TAP	43	0	2
TAP	43	96	2
XTP	43	192	2
XTP	43	192	3
TAP	44	0	1
TAP	44	96	1
XTP	44	192	0
XTP	44	192	1
TAP	45	0	0
TAP	45	0	7
TAP	45	96	0
TAP	45	96	7
BRK	45	192	0
BRK	45	192	7
TAP	46	0	0
TAP	46	96	0
TAP	46	192	0
TAP	47	0	1
TAP	47	96	1
XTP	47	192	0
XTP	47	192	1
TAP	48	0	2
TAP	48	96	2
XTP	48	192	2
XTP	48	192	3
TAP	49	0	4
TAP	49	96	3
TAP	49	192	4
HLD	50	0	3	192
HLD	51	0	4	192
XTP	52	0	2
XTP	52	0	3
XTP	52	192	4
XTP	52	192	5
TAP	53	0	2
TAP	53	0	3
TAP	53	96	2
TAP	53	96	3
BRK	53	192	2
BRK	53	192	3
STR	54	0	1
SI_	54	0	1	96	288	5
XHO	56	0	7	192
XHO	57	0	0	192
STR	58	0	7
SI_	58	0	7	96	288	3
XHO	60	0	0	192
XHO	61	0	7	192
XTP	62	0	0
XTP	62	0	7
XTP	63	0	1
XTP	63	0	6
XTP	64	0	2
XTP	64	0	5
BRK	65	0	3
BRK	65	0	4
TTP	66	0	4	B	0	L1
TTP	67	0	3	B	0	L1
TTP	67	0	5	B	0	L1
TTP	68	0	2	B	0	L1
TTP	68	0	4	B	0	L1
TTP	69	0	3	B	0	L1
TTP	70	0	4	B	0	L1
TTP	70	0	5	B	0	L1
TTP	71	0	2	B	0	L1
TTP	71	0	3	B	0	L1
THO	72	0	0	384	C	1	L1
TAP	74	0	0
TAP	74	96	0
TAP	74	192	1
TAP	74	288	1
XTP	75	0	2
XTP	75	0	3
XTP	75	96	2
XTP	75	96	3
XTP	75	192	2
XTP	75	192	3
XTP	76	0	4
XTP	76	0	5
XTP	76	96	4
XTP	76	96	5
XTP	76	192	4
XTP	76	192	5
TAP	77	0	3
TAP	77	96	4
TAP	77	192	3
HLD	78	0	4	192
HLD	78	0	5	192
HLD	79	0	2	192
HLD	79	0	3	192
XTP	80	0	4
XTP	80	0	5
XTP	80	192	4
XTP	80	192	5
XTP	81	0	2
XTP	81	0	3
XTP	81	192	2
XTP	81	192	3
XTP	82	0	4
XTP	82	96	4
XTP	82	192	3
XTP	82	288	3
XTP	83	0	3
XTP	83	0	4
XTP	83	96	3
XTP	83	96	4
BRK	83	192	2
BRK	83	192	5
TAP	84	0	3
TAP	84	192	3
TAP	85	0	4
TAP	85	192	4
TAP	86	0	5
TAP	86	96	5
TAP	86	192	5
TAP	87	0	6
TAP	87	96	6
TAP	87	192	6
TAP	87	192	7
TAP	88	0	5
TAP	88	192	5
TAP	89	0	4
TAP	89	192	4
TAP	90	0	3
TAP	90	96	3
TAP	90	192	3
TAP	91	0	2
TAP	91	96	2
TAP	91	192	1
TAP	91	288	1
BRK	92	0	0
BRK	92	0	7

T_REC_TAP	103
T_REC_BRK	11
T_REC_XTP	53
T_REC_HLD	14
T_REC_XHO	4
T_REC_STR	2
T_REC_BST	0
T_REC_XST	0
T_REC_TTP	22
T_REC_THO	2
T_REC_SLD	2
T_REC_ALL	213
T_NUM_TAP	180
T_NUM_BRK	11
T_NUM_HLD	20
T_NUM_SLD	2
T_NUM_ALL	213
T_JUDGE_TAP	191
T_JUDGE_HLD	88
T_JUDGE_SLD	2
T_JUDGE_ALL	281
TTM_EACHPAIRS	40
TTM_SCR_TAP	90000
TTM_SCR_BRK	28600
TTM_SCR_HLD	20000
TTM_SCR_SLD	3000
TTM_SCR_ALL	141600
TTM_SCR_S	136300
TTM_SCR_SS	140500
TTM_RAT_ACV	10078

