VERSION	0.00.00	1.03.00
FES_MODE	0
BPM_DEF	185.000	185.000	185.000	185.000
MET_DEF	4	4
RESOLUTION	384
CLK_DEF	384
COMPATIBLE_CODE	MA2

BPM	0	0	185.000
MET	0	0	4	4

STR	3	0	6
SCL	3	0	6	96	480	2
STR	5	0	1
SCR	5	0	1	96	480	5
STR	7	0	6
SLL	7	0	6	96	480	2
STR	9	0	1
SLR	9	0	1	96	480	5
STR	11	0	5
SCR	11	0	5	96	480	2
STR	13	0	2
SCL	13	0	2	96	480	5
STR	15	0	4
SI_	15	0	4	96	144	6
STR	16	0	1
SI_	16	0	1	96	144	3
STR	17	0	3
SSR	17	0	3	96	288	7
STR	17	0	4
SSL	17	0	4	96	288	0
TAP	18	288	3
TAP	18	288	4
TAP	19	0	6
STR	19	48	7
SI_	19	48	7	96	48	3
TAP	19	96	0
TAP	19	144	1
TAP	19	144	7
TAP	19	240	2
TAP	19	288	1
STR	19	336	0
SI_	19	336	0	96	48	4
TAP	20	0	7
TAP	20	48	0
TAP	20	48	6
TAP	20	144	5
TAP	20	192	4
TAP	20	192	5
TAP	20	288	1
TAP	20	288	3
TAP	21	0	6
STR	21	48	7
SI_	21	48	7	96	48	3
TAP	21	96	0
TAP	21	144	1
TAP	21	144	7
TAP	21	240	2
TAP	21	288	1
STR	21	336	0
SI_	21	336	0	96	48	4
TAP	22	0	7
TAP	22	48	0
TAP	22	48	6
TAP	22	144	5
TAP	22	192	5
TAP	22	240	4
BRK	22	288	3
BRK	22	288	6
TAP	23	0	1
STR	23	48	2
SI_	23	48	2	96	48	7
TAP	23	96	3
TAP	23	144	2
TAP	23	144	4
TAP	23	240	6
TAP	23	288	6
STR	23	336	5
SI_	23	336	5	96	48	0
TAP	24	0	4
TAP	24	48	3
TAP	24	48	5
TAP	24	144	1
TAP	24	192	0
TAP	24	192	1
TAP	24	288	2
TAP	24	288	7
TAP	25	0	2
STR	25	48	3
SI_	25	48	3	96	48	7
TAP	25	96	4
TAP	25	144	3
TAP	25	144	5
TAP	25	240	6
TAP	25	288	5
STR	25	336	4
SI_	25	336	4	96	48	0
TAP	26	0	3
TAP	26	48	2
TAP	26	48	4
TAP	26	144	1
TAP	26	192	1
TAP	26	240	0
TAP	26	240	7
BRK	26	288	1
BRK	26	288	6
TAP	27	0	2
HLD	27	96	1	144
TAP	27	96	3
TAP	27	192	2
TAP	27	240	2
HLD	27	336	1	96
TAP	27	336	3
TAP	28	48	3
TAP	28	96	2
TAP	28	96	4
TAP	28	192	4
TAP	28	240	5
TAP	28	288	4
TAP	28	288	6
TAP	29	0	5
TAP	29	96	4
HLD	29	96	6	144
TAP	29	192	5
TAP	29	240	5
TAP	29	336	4
HLD	29	336	6	96
TAP	30	48	4
TAP	30	96	3
TAP	30	96	5
TAP	30	192	3
TAP	30	240	2
TAP	30	288	1
TAP	30	288	3
TAP	31	0	2
HLD	31	96	1	144
TAP	31	96	3
TAP	31	192	2
TAP	31	240	2
HLD	31	336	1	96
TAP	31	336	3
TAP	32	48	3
TAP	32	96	2
TAP	32	96	4
TAP	32	192	4
TAP	32	240	5
TAP	32	288	4
TAP	32	288	6
TAP	33	0	4
TAP	33	0	5
TAP	33	96	0
HLD	33	96	6	144
TAP	33	192	7
TAP	33	240	7
TAP	33	336	0
HLD	33	336	6	96
TAP	34	48	0
TAP	34	96	1
TAP	34	96	7
TAP	34	192	0
TAP	34	192	7
TAP	34	240	0
TAP	34	240	7
BRK	34	288	1
BRK	34	288	6
HLD	35	0	0	96
TAP	35	96	2
HLD	35	144	2	96
TAP	35	240	4
STR	35	288	4
SCL	35	288	4	96	144	1
TAP	36	0	5
TAP	36	96	6
TAP	36	192	7
TTP	36	288	1	B	0	M1
TTP	36	288	1	E	0	M1
TTP	36	288	2	B	0	M1
HLD	37	0	7	96
TAP	37	96	5
HLD	37	144	5	96
TAP	37	240	3
STR	37	288	3
SCR	37	288	3	96	144	6
TAP	38	0	2
TAP	38	96	1
TAP	38	192	0
TTP	38	288	5	B	0	M1
TTP	38	288	6	B	0	M1
TTP	38	288	7	E	0	M1
STR	39	0	1
SCR	39	0	1	96	72	4
TTP	39	96	2	B	0	M1
TTP	39	96	3	B	0	M1
STR	39	192	6
SCL	39	192	6	96	72	3
TTP	39	288	4	B	0	M1
TTP	39	288	5	B	0	M1
STR	40	0	0
SCR	40	0	0	96	72	3
TTP	40	96	2	B	0	M1
TTP	40	96	3	B	0	M1
STR	40	192	7
SCL	40	192	7	96	72	4
TTP	40	288	4	B	0	M1
TTP	40	288	5	B	0	M1
TAP	41	0	0
TAP	41	96	2
TAP	41	96	3
TAP	41	192	4
TAP	41	192	5
TAP	41	288	0
TAP	41	288	6
TAP	42	0	7
TAP	42	48	7
BRK	42	96	1
BRK	42	96	6
TAP	42	192	0
STR	42	288	0
SCR	42	288	0	96	384	6
THO	43	0	0	384	C	0	M1
TAP	44	192	7
STR	44	288	7
SCL	44	288	7	96	384	1
THO	45	0	0	384	C	0	M1
BRK	46	192	0
TAP	47	0	0
TAP	47	0	7
TAP	47	96	2
TAP	47	96	3
TAP	47	144	2
TAP	47	144	3
TAP	47	192	1
TAP	47	192	4
TAP	47	240	1
TAP	47	240	4
TAP	47	288	0
TAP	47	288	5
TAP	47	336	0
TAP	47	336	5
TAP	48	0	0
TAP	48	0	7
TAP	48	48	0
TAP	48	48	7
TAP	48	96	1
TAP	48	96	6
TAP	48	144	1
TAP	48	144	6
TAP	48	192	2
TAP	48	192	5
TAP	48	240	2
TAP	48	240	5
BRK	48	288	2
BRK	48	288	5
TAP	49	0	0
TAP	49	0	1
TAP	49	48	2
TAP	49	48	7
TAP	49	144	6
TAP	49	144	7
TAP	49	192	0
TAP	49	192	5
TAP	49	288	3
TAP	49	288	4
TAP	49	336	2
TAP	49	336	5
TAP	50	48	0
TAP	50	48	7
XTP	50	96	1
XTP	50	96	6
BRK	50	288	0
STR	51	0	1
SI_	51	0	1	96	48	4
TAP	51	0	7
STR	51	96	5
SI_	51	96	5	96	48	1
STR	51	192	0
SI_	51	192	0	96	48	3
STR	51	288	5
SI_	51	288	5	96	48	1
STR	52	0	7
SUR	52	0	7	96	48	3
TAP	52	96	5
TAP	52	192	4
TAP	52	192	6
STR	52	288	0
SCR	52	288	0	96	48	3
TAP	52	288	4
STR	53	0	0
SCL	53	0	0	96	48	5
STR	53	96	0
SI_	53	96	0	96	48	4
TAP	53	192	0
STR	53	192	6
SI_	53	192	6	96	48	2
TAP	53	288	3
TAP	53	288	6
XTP	54	0	0
XTP	54	0	4
STR	54	96	2
SI_	54	96	2	96	48	7
STR	54	96	6
SI_	54	96	6	96	48	3
XTP	54	192	2
XTP	54	192	6
XTP	54	288	1
XTP	54	288	5
STR	55	0	6
SI_	55	0	6	96	48	3
STR	55	96	2
SI_	55	96	2	96	48	6
STR	55	192	7
SI_	55	192	7	96	48	4
STR	55	288	2
SI_	55	288	2	96	48	6
STR	56	0	0
SUL	56	0	0	96	48	4
TAP	56	96	2
TAP	56	192	1
TAP	56	192	3
TAP	56	288	3
STR	56	288	7
SCL	56	288	7	96	48	4
STR	57	0	7
SCR	57	0	7	96	48	2
STR	57	96	7
SI_	57	96	7	96	48	3
STR	57	192	1
SI_	57	192	1	96	48	5
TAP	57	192	7
TAP	57	288	1
TAP	57	288	4
XTP	58	0	3
XTP	58	0	7
STR	58	96	1
SI_	58	96	1	96	48	4
STR	58	96	5
SI_	58	96	5	96	48	0
XTP	58	192	1
XTP	58	192	5
BRK	58	288	2
BRK	58	288	6
TAP	59	0	1
STR	59	0	5
SI_	59	0	5	96	48	7
TAP	59	96	4
TAP	59	192	1
STR	59	192	5
SI_	59	192	5	96	48	0
TAP	59	288	4
STR	60	0	2
SI_	60	0	2	96	48	0
TAP	60	0	6
TAP	60	96	3
STR	60	192	2
SI_	60	192	2	96	48	7
TAP	60	192	6
TAP	60	288	3
TAP	61	0	1
TAP	61	0	5
TAP	61	96	3
TAP	61	96	7
STR	61	144	2
SI_	61	144	2	96	48	7
STR	61	144	6
SI_	61	144	6	96	48	3
TAP	61	240	2
TAP	61	240	6
BRK	61	336	1
BRK	61	336	5
XTP	62	48	7
XTP	62	96	0
XTP	62	96	6
TAP	62	192	0
TAP	62	216	1
TAP	62	240	2
TAP	62	264	3
XST	62	288	4
SI_	62	288	4	96	48	1
XST	62	288	7
SI_	62	288	7	96	48	4
XTP	63	0	4
XTP	63	0	7
TAP	63	96	0
TAP	63	96	5
TAP	63	192	6
TAP	63	224	4
TAP	63	256	5
TAP	63	288	1
TAP	63	320	3
TAP	63	352	2
BRK	64	0	3
BRK	64	0	7
HLD	65	0	6	96
TAP	65	0	7
TAP	65	96	4
HLD	65	144	4	96
TAP	65	240	2
HLD	65	288	2	96
TAP	66	0	0
HLD	66	48	0	96
TAP	66	144	6
TAP	66	192	4
TAP	66	192	5
TAP	66	240	3
TAP	66	288	4
TAP	66	288	5
TAP	66	336	6
TAP	67	0	0
HLD	67	0	1	96
TAP	67	96	3
HLD	67	144	3	96
TAP	67	240	5
HLD	67	288	5	96
TAP	68	0	7
HLD	68	48	7	96
TAP	68	144	0
TAP	68	192	1
TAP	68	192	6
TAP	68	288	3
TAP	68	288	4
TAP	69	0	0
HLD	69	0	1	96
TAP	69	96	3
HLD	69	144	3	96
TAP	69	240	5
HLD	69	288	5	96
TAP	70	0	7
HLD	70	48	7	96
TAP	70	144	1
TAP	70	192	2
TAP	70	192	3
TAP	70	240	4
TAP	70	288	2
TAP	70	288	3
TAP	70	336	1
HLD	71	0	6	96
TAP	71	0	7
TAP	71	96	4
HLD	71	144	4	96
TAP	71	240	3
TAP	71	288	3
TAP	72	0	0
TAP	72	48	1
TAP	72	48	6
TAP	72	144	3
TAP	72	144	4
HLD	72	192	3	96
STR	72	192	4
SI_	72	192	4	96	576	7
TAP	73	0	3
TAP	73	96	3
TAP	73	192	3
TAP	73	288	3
TAP	74	0	3
TAP	74	96	3
STR	74	192	3
SI_	74	192	3	96	576	0
TAP	74	288	4
TAP	75	0	4
TAP	75	96	4
TAP	75	192	4
TAP	75	288	4
TAP	76	0	4
TAP	76	96	4
TAP	76	192	4
TAP	76	288	3
STR	76	288	4
SI_	76	288	4	96	48	6
TAP	77	0	3
STR	77	96	3
SI_	77	96	3	96	48	1
TAP	77	96	4
TAP	77	192	4
TAP	77	288	3
STR	77	288	4
SI_	77	288	4	96	48	7
TAP	78	0	3
STR	78	96	3
SI_	78	96	3	96	48	0
TAP	78	96	4
TAP	78	192	4
TAP	78	288	5
TAP	78	336	5
TAP	79	0	6
TAP	79	0	7
TAP	79	48	0
TAP	79	48	5
TAP	79	144	0
TAP	79	144	1
TAP	79	192	2
TAP	79	192	7
TAP	79	288	6
TAP	79	288	7
TAP	79	336	0
TAP	79	336	5
TAP	80	48	3
TAP	80	48	4
TAP	80	96	2
TAP	80	96	5
TAP	80	192	0
TAP	80	216	7
TAP	80	240	1
TAP	80	264	6
TAP	80	288	2
TAP	80	312	5
TAP	80	336	3
TAP	80	360	4
HLD	81	0	3	576
BRK	82	192	7
STR	83	0	0
SUL	83	0	0	96	192	2
STR	83	0	6
SCL	83	0	6	96	192	2
STR	84	0	1
SCR	84	0	1	96	192	5
STR	84	0	7
SUR	84	0	7	96	192	5
HLD	85	0	6	96
HLD	85	96	5	96
HLD	85	192	4	288
HLD	85	288	3	192
TAP	86	192	3
TAP	86	192	4
BRK	86	288	1
BRK	86	288	6
STR	87	0	0
SUR	87	0	0	96	48	4
TAP	87	0	7
STR	87	96	5
SI_	87	96	5	96	48	1
STR	87	192	7
SI_	87	192	7	96	48	2
STR	87	288	6
SI_	87	288	6	96	48	2
STR	88	0	4
SI_	88	0	4	96	48	0
TAP	88	96	5
TAP	88	192	2
TAP	88	192	6
STR	88	288	0
SCR	88	288	0	96	48	3
TAP	88	288	4
STR	89	0	0
SCL	89	0	0	96	48	5
STR	89	96	0
SI_	89	96	0	96	48	4
TAP	89	192	0
STR	89	192	6
SI_	89	192	6	96	48	2
TAP	89	288	6
TAP	89	288	7
TAP	90	0	0
TAP	90	0	4
STR	90	96	2
SI_	90	96	2	96	48	7
STR	90	96	6
SI_	90	96	6	96	48	3
XTP	90	192	2
XTP	90	192	6
BRK	90	288	1
BRK	90	288	5
STR	91	0	2
SI_	91	0	2	96	48	7
TAP	91	96	3
STR	91	192	2
SCL	91	192	2	96	48	7
TAP	91	192	6
TAP	91	288	3
TAP	92	0	0
STR	92	0	5
SI_	92	0	5	96	48	0
TAP	92	96	4
TAP	92	192	1
STR	92	192	5
SCR	92	192	5	96	48	0
TAP	92	288	4
TAP	93	0	2
TAP	93	0	6
TAP	93	96	0
TAP	93	96	4
STR	93	144	1
SI_	93	144	1	96	48	4
STR	93	144	5
SI_	93	144	5	96	48	0
XTP	93	240	1
XTP	93	240	5
BRK	93	336	2
BRK	93	336	6
XTP	94	48	0
XTP	94	96	1
XTP	94	96	7
TAP	94	192	7
TAP	94	216	6
TAP	94	240	5
TAP	94	264	4
XST	94	288	0
SI_	94	288	0	96	48	4
XST	94	288	3
SI_	94	288	3	96	48	7
XTP	95	0	0
XTP	95	0	3
XTP	95	96	1
XTP	95	96	5
TAP	95	192	3
TAP	95	192	6
TAP	95	240	1
TAP	95	240	4
TAP	95	288	0
TAP	95	312	7
TAP	95	336	0
TAP	95	360	7
BRK	96	0	1
BRK	96	0	6
TAP	96	288	3
TAP	96	288	4
TAP	97	0	1
STR	97	48	0
SI_	97	48	0	96	48	4
TAP	97	96	7
TAP	97	144	0
TAP	97	144	6
TAP	97	240	6
TAP	97	288	5
STR	97	336	4
SI_	97	336	4	96	48	0
TAP	98	0	3
TAP	98	48	2
TAP	98	48	4
TAP	98	144	2
TAP	98	192	1
TAP	98	192	3
TAP	98	288	4
TAP	98	288	6
TAP	99	0	6
STR	99	48	7
SI_	99	48	7	96	48	3
TAP	99	96	0
TAP	99	144	1
TAP	99	144	7
TAP	99	240	1
TAP	99	288	2
STR	99	336	3
SI_	99	336	3	96	48	7
TAP	100	0	4
TAP	100	48	3
TAP	100	48	5
TAP	100	144	6
TAP	100	192	6
TAP	100	240	7
BRK	100	288	0
BRK	100	288	5
TAP	101	0	2
STR	101	48	1
SI_	101	48	1	96	48	5
TAP	101	96	0
TAP	101	144	1
TAP	101	144	7
TAP	101	240	7
TAP	101	288	6
STR	101	336	5
SI_	101	336	5	96	48	1
TAP	102	0	4
TAP	102	48	3
TAP	102	48	5
TAP	102	144	3
TAP	102	192	2
TAP	102	192	4
TAP	102	288	5
TAP	102	288	7
TAP	103	0	5
STR	103	48	6
SCL	103	48	6	96	48	3
TAP	103	96	7
TAP	103	144	0
TAP	103	144	6
TAP	103	240	0
TAP	103	288	1
STR	103	336	2
SCL	103	336	2	96	48	7
TAP	104	0	3
TAP	104	48	2
TAP	104	48	4
TAP	104	144	5
TAP	104	192	3
TAP	104	192	4
TAP	104	240	3
TAP	104	240	4
TAP	104	288	1
TAP	104	288	6
BRK	104	336	1
BRK	104	336	6

T_REC_TAP	387
T_REC_BRK	31
T_REC_XTP	28
T_REC_HLD	32
T_REC_XHO	0
T_REC_STR	89
T_REC_BST	0
T_REC_XST	4
T_REC_TTP	14
T_REC_THO	2
T_REC_SLD	93
T_REC_ALL	680
T_NUM_TAP	522
T_NUM_BRK	31
T_NUM_HLD	34
T_NUM_SLD	93
T_NUM_ALL	680
T_JUDGE_TAP	553
T_JUDGE_HLD	100
T_JUDGE_SLD	93
T_JUDGE_ALL	746
TTM_EACHPAIRS	164
TTM_SCR_TAP	261000
TTM_SCR_BRK	80600
TTM_SCR_HLD	34000
TTM_SCR_SLD	139500
TTM_SCR_ALL	515100
TTM_SCR_S	496650
TTM_SCR_SS	512000
TTM_RAT_ACV	10060

