VERSION	0.00.00	1.03.00
FES_MODE	0
BPM_DEF	185.000	185.000	185.000	185.000
MET_DEF	4	4
RESOLUTION	384
CLK_DEF	384
COMPATIBLE_CODE	MA2

BPM	0	0	185.000
MET	0	0	4	4

HLD	3	0	1	384
HLD	4	0	3	384
HLD	5	0	4	384
TAP	6	0	6
HLD	7	0	6	384
HLD	8	0	4	384
HLD	9	0	3	384
TAP	10	0	1
STR	11	0	0
SCR	11	0	0	96	384	5
STR	13	0	7
SCL	13	0	7	96	384	2
STR	15	0	3
SUR	15	0	3	96	384	0
STR	15	0	4
SUL	15	0	4	96	384	7
XHO	17	0	0	384
BRK	18	0	7
TAP	19	0	3
TAP	19	0	6
TAP	19	96	5
TAP	19	144	5
TAP	19	192	4
TAP	19	288	3
TAP	19	288	4
TAP	20	0	2
TAP	20	48	2
TAP	20	96	3
TAP	20	192	0
TAP	20	288	2
TAP	20	288	3
TAP	21	0	1
TAP	21	0	4
TAP	21	96	2
TAP	21	144	2
TAP	21	192	3
TAP	21	288	3
TAP	21	288	4
TAP	22	0	5
TAP	22	48	5
TAP	22	96	4
TAP	22	192	7
TAP	22	288	4
TAP	22	288	5
TAP	23	0	3
TAP	23	0	6
TAP	23	96	5
TAP	23	144	5
TAP	23	192	4
TAP	23	288	3
TAP	23	288	4
TAP	24	0	2
TAP	24	48	2
TAP	24	96	3
TAP	24	192	0
TAP	24	288	2
TAP	24	288	3
TAP	25	0	1
TAP	25	0	4
TAP	25	96	2
TAP	25	144	2
TAP	25	192	3
TAP	25	288	1
TAP	25	288	6
TAP	26	0	7
TAP	26	48	7
TAP	26	96	0
BRK	26	192	1
BRK	26	192	6
TAP	27	0	5
TAP	27	96	4
TAP	27	192	2
TAP	27	288	1
TAP	27	288	3
TAP	28	0	2
TAP	28	96	3
TAP	28	192	5
TAP	28	288	4
TAP	28	288	6
TAP	29	0	5
TAP	29	96	4
TAP	29	192	2
TAP	29	288	1
TAP	29	288	3
TAP	30	0	0
TAP	30	96	7
TAP	30	192	6
TAP	30	288	3
TAP	30	288	5
TAP	31	0	2
TAP	31	96	3
TAP	31	192	5
TAP	31	288	4
TAP	31	288	6
TAP	32	0	5
TAP	32	96	4
TAP	32	192	2
TAP	32	288	1
TAP	32	288	3
TAP	33	0	2
TAP	33	96	3
TAP	33	192	5
TAP	33	288	4
TAP	33	288	6
TAP	34	0	7
TAP	34	96	1
TAP	34	96	6
TAP	34	288	2
TAP	34	288	3
HLD	35	0	5	144
HLD	35	144	6	144
TAP	35	288	7
TAP	36	0	6
TAP	36	96	5
TAP	36	192	3
TAP	36	192	4
TAP	36	288	2
TAP	36	288	5
HLD	37	0	2	144
HLD	37	144	1	144
TAP	37	288	0
TAP	38	0	1
TAP	38	96	2
TAP	38	192	3
TAP	38	192	4
TAP	38	288	2
TAP	38	288	5
HLD	39	0	5	192
TAP	39	192	4
TAP	39	288	3
TAP	40	0	2
TAP	40	96	1
TAP	40	192	0
STR	40	288	7
SUR	40	288	7	96	384	0
TAP	42	192	2
TAP	42	192	5
STR	43	0	0
SCR	43	0	0	96	288	5
HLD	43	0	7	576
TAP	44	192	4
HLD	45	0	0	576
STR	45	0	7
SCL	45	0	7	96	288	2
TAP	46	192	3
TAP	47	0	5
TAP	47	96	4
TAP	47	96	6
TAP	47	192	2
TAP	47	288	1
TAP	47	288	3
TAP	48	0	6
TAP	48	48	6
TAP	48	96	7
TAP	48	192	1
TAP	48	240	1
TAP	48	288	0
TAP	49	0	2
TAP	49	48	2
TAP	49	48	3
TAP	49	144	5
TAP	49	192	4
TAP	49	192	5
TAP	49	288	0
TAP	49	336	0
TAP	49	336	7
TAP	50	48	2
TAP	50	48	5
TAP	50	96	2
TAP	50	96	5
BRK	50	192	7
STR	51	0	1
SI_	51	0	1	96	96	4
TAP	51	0	7
STR	51	192	6
SI_	51	192	6	96	96	2
STR	52	0	1
SI_	52	0	1	96	96	5
STR	52	192	7
SCL	52	192	7	96	96	4
HLD	53	0	0	96
HLD	53	96	2	96
TAP	53	192	3
TAP	53	288	1
TAP	53	288	4
TAP	54	0	3
TAP	54	0	5
TAP	54	96	2
TAP	54	96	4
TAP	54	192	0
TAP	54	192	7
BRK	54	288	2
BRK	54	288	5
TAP	55	0	0
STR	55	0	6
SI_	55	0	6	96	96	3
STR	55	192	1
SI_	55	192	1	96	96	5
STR	56	0	6
SI_	56	0	6	96	96	2
STR	56	192	0
SCR	56	192	0	96	96	3
HLD	57	0	7	96
HLD	57	96	5	96
TAP	57	192	4
TAP	57	288	3
TAP	57	288	6
TAP	58	0	0
TAP	58	0	7
TAP	58	96	3
TAP	58	96	4
TAP	58	192	5
TAP	58	288	4
TAP	58	288	6
TTP	59	0	7	B	0	M1
TTP	59	0	7	E	0	M1
TTP	59	96	4	B	0	M1
TTP	59	96	5	E	0	M1
TAP	59	192	2
TAP	59	288	1
TAP	59	288	3
TTP	60	0	0	B	0	M1
TTP	60	0	1	E	0	M1
TTP	60	96	3	B	0	M1
TTP	60	96	3	E	0	M1
TAP	60	192	1
TAP	60	192	5
HLD	60	288	7	96
TAP	61	0	0
TAP	61	96	2
TAP	61	96	4
BRK	61	144	2
BRK	61	144	4
BRK	61	240	3
BRK	61	240	5
BRK	61	336	1
BRK	61	336	6
TAP	62	48	0
HLD	62	96	0	96
TAP	62	192	7
TAP	62	288	3
TAP	62	288	4
STR	63	0	1
SV_	63	0	1	96	192	2
STR	63	0	6
SV_	63	0	6	96	192	5
BRK	64	0	1
BRK	64	0	6
TAP	65	0	2
TAP	65	0	4
TAP	65	96	5
XTP	65	144	4
XTP	65	144	5
TAP	65	240	1
TAP	65	288	1
TAP	65	288	3
TAP	66	0	6
XTP	66	48	4
XTP	66	48	6
TAP	66	144	6
TAP	66	144	7
TAP	66	192	6
TAP	66	192	7
TAP	66	288	0
TAP	66	288	5
TAP	67	0	3
TAP	67	0	6
TAP	67	96	2
XTP	67	144	2
XTP	67	144	3
TAP	67	240	6
TAP	67	288	4
TAP	67	288	6
TAP	68	0	1
XTP	68	48	1
XTP	68	48	3
TAP	68	144	0
TAP	68	144	1
TAP	68	192	0
TAP	68	192	1
TAP	68	288	2
TAP	68	288	7
TAP	69	0	1
TAP	69	0	4
TAP	69	96	5
XTP	69	144	4
XTP	69	144	5
TAP	69	240	1
TAP	69	288	1
TAP	69	288	3
TAP	70	0	6
XTP	70	48	0
XTP	70	48	6
TAP	70	144	4
TAP	70	144	5
TAP	70	192	4
TAP	70	192	5
TAP	70	288	3
TAP	70	288	6
TAP	71	0	1
TAP	71	0	4
TAP	71	96	2
XTP	71	144	2
XTP	71	144	3
TAP	71	240	6
TAP	71	288	4
TAP	71	288	6
TAP	72	0	1
XTP	72	48	1
XTP	72	48	7
TAP	72	144	2
TAP	72	144	3
TAP	72	192	2
TAP	72	192	3
TAP	72	288	1
TAP	72	288	4
TAP	73	0	6
HLD	73	96	6	96
TAP	73	192	4
HLD	73	288	4	96
TAP	74	0	3
HLD	74	96	3	96
TAP	74	192	1
TAP	74	288	2
TAP	74	288	3
TAP	75	0	1
HLD	75	96	1	96
TAP	75	192	3
HLD	75	288	3	96
TAP	76	0	4
HLD	76	96	4	96
TAP	76	192	6
TAP	76	288	4
TAP	76	288	5
TAP	77	0	2
HLD	77	96	2	96
TAP	77	192	0
HLD	77	288	0	96
TAP	78	0	7
HLD	78	96	7	96
TAP	78	192	5
BST	78	288	3
SXR	78	288	3	96	384	0
BST	78	288	4
SXL	78	288	4	96	384	7
TAP	80	192	0
TAP	80	192	7
TAP	80	288	3
TAP	80	288	4
BRK	81	0	1
BRK	81	0	6
TTP	82	192	0	C	1	M1
HLD	83	0	0	192
HLD	83	192	2	192
HLD	84	0	4	192
HLD	84	192	6	192
TAP	85	0	7
TAP	85	96	4
TAP	85	96	5
TAP	85	192	2
TAP	85	192	3
HLD	85	288	0	288
BRK	86	192	7
TAP	86	288	2
TAP	86	288	5
STR	87	0	3
SCL	87	0	3	96	96	0
TAP	87	0	4
STR	87	192	7
SCL	87	192	7	96	96	4
STR	88	0	2
SCL	88	0	2	96	96	7
STR	88	192	5
SCL	88	192	5	96	96	2
HLD	89	0	0	96
HLD	89	96	2	96
TAP	89	192	3
TAP	89	288	1
TAP	89	288	4
TAP	90	0	0
TAP	90	0	7
TAP	90	96	1
TAP	90	96	6
TAP	90	192	2
TAP	90	192	3
TAP	90	288	1
TAP	90	288	4
TTP	91	0	0	B	0	M1
TTP	91	0	1	E	0	M1
TTP	91	96	3	B	0	M1
TTP	91	96	3	E	0	M1
TAP	91	192	4
TAP	91	192	5
TAP	91	288	3
TAP	91	288	6
TTP	92	0	7	B	0	M1
TTP	92	0	7	E	0	M1
TTP	92	96	4	B	0	M1
TTP	92	96	5	E	0	M1
TAP	92	192	2
TAP	92	192	6
HLD	92	288	0	96
TAP	93	0	7
TAP	93	96	3
TAP	93	96	5
BRK	93	144	3
BRK	93	144	5
BRK	93	240	2
BRK	93	240	4
BRK	93	336	1
BRK	93	336	6
TAP	94	48	7
HLD	94	96	7	96
TAP	94	192	0
TAP	94	288	3
TAP	94	288	4
STR	95	0	1
SV_	95	0	1	96	192	2
STR	95	0	6
SV_	95	0	6	96	192	5
BRK	96	0	1
BRK	96	0	6
TAP	97	0	3
TAP	97	0	6
XTP	97	96	1
TAP	97	144	1
TAP	97	192	1
XTP	97	192	3
TAP	97	288	4
TAP	97	288	6
XTP	98	0	5
TAP	98	48	5
TAP	98	96	3
TAP	98	96	5
XTP	98	192	0
TAP	98	192	7
TAP	98	288	2
TAP	98	288	3
TAP	99	0	1
TAP	99	0	4
XTP	99	96	6
TAP	99	144	6
XTP	99	192	4
TAP	99	192	6
TAP	99	288	1
TAP	99	288	3
XTP	100	0	2
TAP	100	48	2
TAP	100	96	2
TAP	100	96	4
TAP	100	192	0
XTP	100	192	7
TAP	100	288	4
TAP	100	288	5
TAP	101	0	3
TAP	101	0	6
XTP	101	96	1
TAP	101	144	1
TAP	101	192	1
XTP	101	192	7
TAP	101	288	2
TAP	101	288	4
XTP	102	0	6
TAP	102	48	6
TAP	102	96	0
TAP	102	96	6
XTP	102	192	4
TAP	102	192	5
TAP	102	288	2
TAP	102	288	3
TAP	103	0	1
TAP	103	0	4
XTP	103	96	6
TAP	103	144	6
XTP	103	192	0
TAP	103	192	6
TAP	103	288	3
TAP	103	288	5
XTP	104	0	1
TAP	104	48	1
TAP	104	96	1
TAP	104	96	6
TAP	104	192	0
TAP	104	192	7
TAP	104	240	1
TAP	104	240	6
TAP	104	288	2
TAP	104	288	5
TAP	104	336	3
TAP	104	336	4

T_REC_TAP	329
T_REC_BRK	25
T_REC_XTP	31
T_REC_HLD	37
T_REC_XHO	1
T_REC_STR	23
T_REC_BST	2
T_REC_XST	0
T_REC_TTP	17
T_REC_THO	0
T_REC_SLD	25
T_REC_ALL	490
T_NUM_TAP	400
T_NUM_BRK	27
T_NUM_HLD	38
T_NUM_SLD	25
T_NUM_ALL	490
T_JUDGE_TAP	427
T_JUDGE_HLD	156
T_JUDGE_SLD	25
T_JUDGE_ALL	608
TTM_EACHPAIRS	135
TTM_SCR_TAP	200000
TTM_SCR_BRK	70200
TTM_SCR_HLD	38000
TTM_SCR_SLD	37500
TTM_SCR_ALL	345700
TTM_SCR_S	332750
TTM_SCR_SS	343000
TTM_RAT_ACV	10078

