VERSION	0.00.00	1.03.00
FES_MODE	0
BPM_DEF	185.000	185.000	185.000	185.000
MET_DEF	4	4
RESOLUTION	384
CLK_DEF	384
COMPATIBLE_CODE	MA2

BPM	0	0	185.000
MET	0	0	4	4

HLD	3	0	2	384
HLD	4	0	3	384
HLD	5	0	4	384
TAP	6	0	5
HLD	7	0	5	384
HLD	8	0	4	384
HLD	9	0	3	384
TAP	10	0	2
HLD	11	0	1	384
HLD	12	0	2	384
HLD	13	0	3	384
HLD	14	0	4	384
HLD	15	0	5	384
HLD	16	0	6	384
THO	17	0	0	384	C	0	L1
XTP	19	0	2
TAP	19	96	2
TAP	19	192	2
TAP	19	192	3
TAP	20	0	1
TAP	20	96	1
TAP	20	192	0
TAP	20	192	1
TAP	21	0	6
TAP	21	96	6
TAP	21	192	6
TAP	21	192	7
TAP	22	0	5
TAP	22	96	5
TAP	22	192	4
TAP	22	192	5
TAP	23	0	6
TAP	23	96	6
TAP	23	192	6
TAP	23	192	7
TAP	24	0	1
TAP	24	96	1
TAP	24	192	0
TAP	24	192	1
HLD	25	0	0	192
HLD	25	0	7	192
TAP	26	0	0
TAP	26	0	7
BRK	26	192	1
BRK	26	192	6
HLD	27	0	2	192
TAP	27	192	3
HLD	28	0	5	192
TAP	28	192	4
HLD	29	0	2	192
TAP	29	192	3
TAP	30	0	1
TAP	30	96	1
TAP	30	192	0
TAP	30	192	1
HLD	31	0	6	192
TAP	31	192	7
HLD	32	0	1	192
TAP	32	192	0
HLD	33	0	2	192
HLD	33	0	3	192
TAP	34	0	3
TAP	34	0	4
XTP	34	192	2
XTP	34	192	5
TAP	35	0	1
TAP	35	96	1
HLD	35	192	1	192
TAP	36	0	3
TAP	36	192	2
TAP	37	0	5
TAP	37	96	5
HLD	37	192	5	192
TAP	38	0	4
TAP	38	192	3
TAP	38	192	6
HLD	39	0	6	192
TAP	39	192	7
HLD	40	0	1	192
TAP	40	192	0
HLD	41	0	0	192
HLD	41	0	7	192
TAP	42	0	1
TAP	42	0	6
TAP	42	96	1
TAP	42	96	6
XTP	42	192	1
XTP	42	192	6
TTP	43	0	3	E	0	L1
TTP	43	192	2	E	0	L1
TTP	44	0	0	B	0	L1
TTP	44	0	1	E	0	L1
TTP	45	0	5	E	0	L1
TTP	45	192	6	E	0	L1
TTP	46	0	7	B	0	L1
TTP	46	0	7	E	0	L1
TTP	47	0	2	E	0	L1
TTP	47	96	2	B	0	L1
TTP	47	192	3	B	0	L1
TTP	48	0	6	E	0	L1
TTP	48	96	5	B	0	L1
TTP	48	192	4	B	0	L1
THO	49	0	0	384	C	1	L1
BRK	51	0	0
TAP	51	96	0
TAP	51	192	1
TAP	51	288	1
TAP	52	0	2
TAP	52	96	2
TAP	52	192	2
TAP	52	192	3
TAP	53	0	4
TAP	53	96	4
TAP	53	192	5
TAP	53	288	5
TAP	54	0	6
TAP	54	96	6
TAP	54	192	6
TAP	54	192	7
HLD	55	0	5	96
TAP	55	96	4
TAP	55	192	3
TAP	55	192	6
HLD	56	0	2	96
TAP	56	96	3
TAP	56	192	1
TAP	56	192	4
TAP	57	0	0
TAP	57	96	0
TAP	57	192	7
TAP	57	288	7
TAP	58	0	0
TAP	58	0	7
TAP	58	96	0
TAP	58	96	7
XTP	58	192	1
XTP	58	192	6
TAP	59	0	0
TAP	59	96	1
TAP	59	192	2
TAP	59	288	3
TAP	60	0	4
TAP	60	96	5
TAP	60	192	6
STR	60	288	6
SUL	60	288	6	96	336	3
XTP	62	192	2
XTP	62	192	4
TAP	63	0	1
TAP	63	96	1
TAP	63	192	7
TAP	63	288	7
XTP	64	0	0
XTP	64	0	6
TAP	65	0	2
TAP	65	96	2
TAP	65	192	3
TAP	65	288	3
TAP	66	0	2
TAP	66	192	1
TAP	66	192	3
TAP	67	0	5
TAP	67	96	5
TAP	67	192	4
TAP	67	288	4
TAP	68	0	5
TAP	68	192	4
TAP	68	192	6
TAP	69	0	6
TAP	69	96	6
TAP	69	192	7
TAP	69	288	7
TAP	70	0	6
TAP	70	192	0
TAP	70	192	5
TAP	71	0	1
TAP	71	96	1
TAP	71	192	7
TAP	71	288	7
TAP	72	0	0
TAP	72	0	7
XTP	72	192	1
XTP	72	192	6
STR	73	0	2
SCR	73	0	2	96	288	5
TAP	74	192	6
STR	75	0	6
SI_	75	0	6	96	288	2
TAP	76	192	1
STR	77	0	1
SCL	77	0	1	96	288	6
TAP	78	192	5
STR	79	0	3
SCL	79	0	3	96	288	0
STR	79	0	4
SCR	79	0	4	96	288	7
XTP	80	192	1
XTP	80	192	6
THO	81	0	0	576	C	0	L1
XHO	83	0	0	192
XHO	83	0	7	192
XHO	84	0	1	192
XHO	84	0	6	192
TAP	85	0	2
TAP	85	96	2
TAP	85	192	5
TAP	85	288	5
TAP	86	0	3
TAP	86	0	4
BRK	86	192	1
BRK	86	192	6
TAP	87	0	2
TAP	87	96	1
TAP	87	192	0
TAP	87	192	1
TAP	87	288	0
TAP	87	288	1
TAP	88	0	7
TAP	88	96	6
TAP	88	192	0
TAP	88	192	5
TAP	89	0	5
TAP	89	96	6
TAP	89	192	6
TAP	89	192	7
TAP	89	288	6
TAP	89	288	7
TAP	90	0	0
TAP	90	0	1
TAP	90	96	0
TAP	90	96	1
BRK	90	192	2
BRK	90	192	7
TAP	91	0	0
TAP	91	96	1
TAP	91	192	2
TAP	91	288	3
TAP	92	0	4
TAP	92	96	5
TAP	92	192	6
STR	92	288	7
SSR	92	288	7	96	384	3
XTP	94	192	1
XTP	94	192	4
TAP	95	0	0
TAP	95	96	0
TAP	95	192	7
TAP	95	288	7
XHO	96	0	1	192
XHO	96	0	6	192
TAP	97	0	2
TAP	97	96	2
TAP	97	192	3
TAP	97	288	4
TAP	98	0	5
TAP	98	96	5
TAP	98	192	4
TAP	98	192	6
TAP	99	0	5
TAP	99	96	5
TAP	99	192	4
TAP	99	288	3
TAP	100	0	2
TAP	100	96	2
TAP	100	192	1
TAP	100	192	3
TAP	101	0	1
TAP	101	96	1
TAP	101	192	0
TAP	101	288	7
TAP	102	0	6
TAP	102	96	6
TAP	102	192	5
TAP	102	192	7
TAP	103	0	6
TAP	103	96	6
TAP	103	192	7
TAP	103	288	0
TAP	104	0	0
TAP	104	0	7
TAP	104	96	0
TAP	104	96	7
TAP	104	192	1
TAP	104	192	6
BRK	104	288	2
BRK	104	288	5

T_REC_TAP	194
T_REC_BRK	9
T_REC_XTP	17
T_REC_HLD	29
T_REC_XHO	6
T_REC_STR	7
T_REC_BST	0
T_REC_XST	0
T_REC_TTP	14
T_REC_THO	3
T_REC_SLD	7
T_REC_ALL	286
T_NUM_TAP	232
T_NUM_BRK	9
T_NUM_HLD	38
T_NUM_SLD	7
T_NUM_ALL	286
T_JUDGE_TAP	241
T_JUDGE_HLD	212
T_JUDGE_SLD	7
T_JUDGE_ALL	460
TTM_EACHPAIRS	55
TTM_SCR_TAP	116000
TTM_SCR_BRK	23400
TTM_SCR_HLD	38000
TTM_SCR_SLD	10500
TTM_SCR_ALL	187900
TTM_SCR_S	181400
TTM_SCR_SS	187000
TTM_RAT_ACV	10048

