VERSION	0.00.00	1.03.00
FES_MODE	0
BPM_DEF	185.000	185.000	185.000	185.000
MET_DEF	4	4
RESOLUTION	384
CLK_DEF	384
COMPATIBLE_CODE	MA2

BPM	0	0	185.000
MET	0	0	4	4

HLD	3	0	3	768
TAP	6	0	3
HLD	7	0	4	768
TAP	10	0	4
TTP	11	0	3	B	0	L1
TTP	11	0	4	B	0	L1
TTP	13	0	2	B	0	L1
TTP	13	0	5	B	0	L1
THO	15	0	0	1152	C	0	L1
XHO	19	0	7	576
XHO	21	0	0	576
XHO	23	0	0	576
XHO	23	0	7	576
XHO	25	0	1	576
XHO	25	0	6	576
TAP	27	0	1
TAP	27	192	1
TAP	28	0	2
TAP	28	192	2
HLD	29	0	3	192
TAP	30	0	3
TAP	30	0	4
TAP	31	0	5
TAP	31	192	5
TAP	32	0	6
TAP	32	192	6
HLD	33	0	7	192
XTP	34	0	0
XTP	34	0	7
HLD	35	0	0	192
HLD	35	0	1	192
TAP	36	0	7
TAP	36	192	7
HLD	37	0	6	192
HLD	37	0	7	192
TAP	38	0	0
TAP	38	192	0
TAP	39	0	1
TAP	39	192	1
TAP	40	0	2
TAP	40	192	2
HLD	41	0	3	384
HLD	41	0	4	384
TTP	43	0	4	B	0	L1
TTP	43	0	5	B	0	L1
TTP	45	0	2	B	0	L1
TTP	45	0	3	B	0	L1
TAP	47	0	4
TAP	47	192	4
TAP	48	0	3
TAP	48	192	3
HLD	49	0	3	384
HLD	49	0	4	384
BRK	50	192	3
BRK	50	192	4
TAP	51	0	2
TAP	51	96	2
TAP	51	192	2
TAP	52	0	1
TAP	52	96	1
TAP	52	192	1
TAP	53	0	0
TAP	53	96	0
TAP	53	192	7
TAP	53	288	7
TAP	54	0	0
TAP	54	0	7
XTP	54	192	0
XTP	54	192	7
TAP	55	0	6
TAP	55	96	6
TAP	55	192	6
TAP	56	0	5
TAP	56	96	5
TAP	56	192	5
TAP	57	0	4
TAP	57	96	4
TAP	57	192	3
TAP	57	288	3
TAP	58	0	3
TAP	58	0	4
TAP	58	192	3
TAP	58	192	4
TAP	59	0	4
TAP	59	96	4
TAP	59	192	4
TAP	60	0	3
TAP	60	96	3
TAP	60	192	3
HLD	61	0	4	384
HLD	61	0	5	384
TAP	63	0	3
TAP	63	0	4
TAP	63	192	3
TAP	63	192	4
BRK	64	0	2
BRK	64	0	5
STR	65	0	1
SI_	65	0	1	96	288	4
STR	67	0	6
SI_	67	0	6	96	288	3
STR	69	0	0
SI_	69	0	0	96	288	4
STR	71	0	7
SI_	71	0	7	96	288	3
TTP	73	0	2	B	0	L1
TTP	74	0	4	B	0	L1
TTP	75	0	3	B	0	L1
TTP	76	0	5	B	0	L1
TTP	77	0	3	B	0	L1
TTP	77	0	4	B	0	L1
TTP	78	0	2	B	0	L1
TTP	78	0	5	B	0	L1
TTP	79	0	1	B	0	L1
TTP	79	0	6	B	0	L1
TTP	80	0	0	B	0	L1
TTP	80	0	7	B	0	L1
THO	81	0	0	768	C	1	L1
TAP	85	0	7
TAP	85	96	7
TAP	85	192	0
TAP	85	288	0
XTP	86	192	0
XTP	86	192	7
TAP	87	0	7
TAP	87	96	7
TAP	87	192	7
TAP	88	0	6
TAP	88	96	6
TAP	88	192	6
TAP	89	0	5
TAP	89	96	5
TAP	89	192	4
TAP	89	288	4
TAP	90	0	3
TAP	90	0	4
TAP	90	192	3
TAP	90	192	4
TAP	91	0	3
TAP	91	96	3
TAP	91	192	3
TAP	92	0	4
TAP	92	96	4
TAP	92	192	4
HLD	93	0	2	384
HLD	93	0	3	384
TAP	95	0	3
TAP	95	0	4
TAP	95	192	3
TAP	95	192	4
BRK	96	0	2
BRK	96	0	5
HLD	97	0	1	384
TAP	98	192	0
TAP	98	192	1
HLD	99	0	7	384
TAP	100	192	0
TAP	100	192	7
HLD	101	0	6	384
TAP	102	192	6
TAP	102	192	7
TAP	103	0	5
TAP	103	192	5
HLD	104	0	4	336
HLD	104	0	5	336

T_REC_TAP	96
T_REC_BRK	6
T_REC_XTP	6
T_REC_HLD	21
T_REC_XHO	6
T_REC_STR	4
T_REC_BST	0
T_REC_XST	0
T_REC_TTP	20
T_REC_THO	2
T_REC_SLD	4
T_REC_ALL	165
T_NUM_TAP	126
T_NUM_BRK	6
T_NUM_HLD	29
T_NUM_SLD	4
T_NUM_ALL	165
T_JUDGE_TAP	132
T_JUDGE_HLD	270
T_JUDGE_SLD	4
T_JUDGE_ALL	406
TTM_EACHPAIRS	28
TTM_SCR_TAP	63000
TTM_SCR_BRK	15600
TTM_SCR_HLD	29000
TTM_SCR_SLD	6000
TTM_SCR_ALL	113600
TTM_SCR_S	109650
TTM_SCR_SS	113000
TTM_RAT_ACV	10053

