VERSION	0.00.00	1.03.00
FES_MODE	0
BPM_DEF	178.000	178.000	178.000	178.000
MET_DEF	4	4
RESOLUTION	384
CLK_DEF	384
COMPATIBLE_CODE	MA2

BPM	0	0	178.000
MET	0	0	4	4

STR	2	0	0
SI_	2	0	0	96	48	2
TAP	2	0	5
TAP	2	96	7
STR	2	192	0
SI_	2	192	0	96	48	4
TAP	2	192	5
TAP	2	288	7
STR	3	0	0
SI_	3	0	0	96	48	2
TAP	3	0	5
TAP	3	96	7
STR	3	192	0
SI_	3	192	0	96	48	4
TAP	3	192	5
TAP	3	288	7
TAP	4	0	0
TAP	4	0	5
TAP	4	48	0
TAP	4	96	7
TAP	4	144	1
STR	4	144	6
SCL	4	144	6	96	96	2
TAP	4	240	2
TAP	4	288	1
HLD	4	336	0	144
TAP	5	48	7
TAP	5	96	7
STR	5	192	4
SI_	5	192	4	96	48	1
STR	5	192	5
SI_	5	192	5	96	48	0
XTP	5	288	4
XTP	5	288	5
XTP	6	0	2
XST	6	0	7
SI_	6	0	7	96	48	5
TAP	6	96	0
TAP	6	192	2
STR	6	192	7
SI_	6	192	7	96	48	3
TAP	6	288	0
TAP	7	0	2
STR	7	0	7
SI_	7	0	7	96	48	5
TAP	7	96	0
TAP	7	192	2
STR	7	192	7
SI_	7	192	7	96	48	3
TAP	7	288	0
TAP	8	0	2
TAP	8	48	3
TAP	8	96	4
HLD	8	144	5	432
TAP	8	240	7
TAP	8	288	7
STR	8	336	7
SCR	8	336	7	96	144	4
TAP	10	0	3
TAP	10	48	4
TTP	10	144	2	B	0	M1
TTP	10	144	5	B	0	M1
TTP	10	240	3	B	0	M1
TTP	10	240	4	B	0	M1
TAP	11	0	2
TAP	11	48	2
TAP	11	96	4
TAP	11	144	4
TAP	11	192	2
HLD	11	240	2	480
TAP	11	336	1
TAP	12	48	3
TAP	12	144	4
TAP	12	240	5
STR	12	336	6
SCL	12	336	6	96	48	4
TAP	13	48	3
TAP	13	96	2
TAP	13	144	1
TAP	13	192	0
TAP	13	192	3
TAP	13	240	0
TAP	13	240	3
STR	13	336	1
SI_	13	336	1	96	48	4
TAP	13	336	5
TAP	14	48	7
STR	14	144	1
SI_	14	144	1	96	48	4
TAP	14	144	5
TAP	14	240	7
TAP	14	336	3
TAP	14	336	6
TAP	15	48	2
TAP	15	96	3
TAP	15	144	4
HLD	15	192	5	144
TAP	15	240	4
TAP	15	288	4
STR	15	336	4
SI_	15	336	4	96	48	0
TAP	16	48	7
TAP	16	96	7
TAP	16	192	0
TAP	16	192	6
TAP	16	240	1
TAP	16	240	7
TAP	16	336	3
HLD	16	336	4	144
TAP	17	48	5
TAP	17	96	5
TAP	17	192	3
TAP	17	240	4
TAP	17	288	2
TAP	17	288	5
TAP	17	336	2
TAP	17	336	5
TAP	18	48	1
TAP	18	48	6
TAP	18	96	1
TAP	18	96	6
TTP	18	192	0	C	0	M1
TAP	18	288	0
TAP	18	288	7
XTP	18	336	1
XTP	18	336	6
TAP	19	48	2
TAP	19	72	3
TAP	19	96	2
TAP	19	144	5
TAP	19	168	4
TAP	19	192	5
STR	19	240	3
SI_	19	240	3	96	48	6
TAP	19	240	6
STR	19	336	4
SI_	19	336	4	96	48	0
STR	20	48	2
SXL	20	48	2	96	96	3
SLL	20	48	2	96	96	3
TAP	20	336	0
TAP	20	336	2
TAP	21	48	3
TAP	21	48	4
STR	21	96	3
SUR	21	96	3	96	96	4
TAP	21	96	4
TAP	21	336	3
TAP	21	336	6
TAP	22	48	4
TAP	22	48	5
STR	22	96	4
SF_	22	96	4	96	48	0
TAP	22	96	5
XTP	22	336	1
XTP	22	336	6
TAP	23	48	5
TAP	23	72	4
TAP	23	96	5
TAP	23	144	2
TAP	23	168	3
TAP	23	192	2
TAP	23	240	5
TAP	23	288	6
XTP	23	336	0
XHO	23	336	7	144
XTP	24	48	6
XST	24	96	6
SCL	24	96	6	96	96	1
TAP	24	336	0
TAP	24	336	4
TAP	25	48	2
TAP	25	96	3
TAP	25	144	4
TAP	25	192	2
TAP	25	192	5
TAP	25	288	3
TAP	25	288	4
STR	25	336	3
SXL	25	336	3	96	144	6
SXR	25	336	3	96	144	0
TAP	25	336	4
XTP	26	288	1
XTP	26	288	7
XTP	26	336	0
XTP	26	336	6
TAP	27	48	7
STR	27	96	7
SI_	27	96	7	96	96	4
STR	27	192	4
SI_	27	192	4	96	96	1
STR	27	288	1
SI_	27	288	1	96	96	6
STR	28	0	6
SI_	28	0	6	96	96	3
STR	28	96	3
SI_	28	96	3	96	96	7
XTP	28	192	7
XTP	28	288	0
TAP	29	0	2
TAP	29	0	3
TAP	29	96	4
TAP	29	96	5
STR	29	192	1
SI_	29	192	1	96	96	5
STR	29	288	5
SLL	29	288	5	96	192	1
TAP	30	0	0
TAP	30	96	7
TAP	30	192	6
TAP	30	288	0
TAP	30	288	7
TAP	31	0	5
TAP	31	48	4
TAP	31	96	3
TAP	31	96	6
TAP	31	192	2
TAP	31	240	3
TAP	31	288	1
STR	31	288	4
SXL	31	288	4	96	96	4
SXR	31	288	4	96	96	4
TAP	32	192	2
TAP	32	240	3
TAP	32	288	4
TAP	32	336	5
STR	33	0	6
SI_	33	0	6	96	96	0
STR	33	96	0
SI_	33	96	0	96	96	4
TAP	33	192	3
TAP	33	240	2
TAP	33	288	1
STR	34	0	4
SI_	34	0	4	96	48	7
SUR	34	0	4	96	48	1
STR	34	192	4
SI_	34	192	4	96	48	7
SXR	34	192	4	96	48	4
TAP	35	0	0
TAP	35	48	1
TAP	35	96	2
TAP	35	144	3
TAP	35	144	4
TAP	35	192	5
TAP	35	240	6
TAP	35	288	0
TAP	35	288	7
TAP	35	336	2
STR	35	336	5
SUL	35	336	5	96	96	4
TAP	36	48	1
TAP	36	96	1
TAP	36	192	2
TAP	36	240	3
BST	36	336	1
SLR	36	336	1	96	96	7
BRK	36	336	6
BST	37	96	4
SI_	37	96	4	96	48	6
BST	37	192	2
SI_	37	192	2	96	48	0
BST	37	288	3
SI_	37	288	3	96	48	7
BRK	38	0	2
TAP	38	96	0
TAP	38	96	1
TAP	38	144	3
TAP	38	144	6
TAP	38	240	2
TAP	38	240	3
BST	38	336	0
SXL	38	336	0	96	144	3
BRK	38	336	5
TAP	39	48	7
TAP	39	96	6
TAP	39	144	5
TAP	39	192	4
TAP	39	288	0
TAP	39	288	5
TAP	39	336	0
TAP	39	336	5
TAP	40	48	2
TAP	40	48	7
TAP	40	96	2
STR	40	96	7
SCL	40	96	7	96	96	2
TTP	40	240	0	C	1	M1
XTP	40	336	0
XST	40	336	5
SCR	40	336	5	96	48	7
TAP	41	48	2
TAP	41	96	1
TAP	41	144	0
STR	41	144	5
SCR	41	144	5	96	48	7
TAP	41	240	2
TAP	41	288	1
TAP	41	336	0
TAP	41	336	5
TAP	42	48	4
TAP	42	96	3
TAP	42	144	2
TAP	42	144	5
BRK	42	240	6
BRK	42	240	7
TAP	42	336	4
HLD	42	336	5	144
TAP	43	48	3
HLD	43	96	1	96
TAP	43	144	3
HLD	43	192	5	96
TAP	43	240	3
TAP	43	288	1
TAP	43	336	0
TAP	43	336	7
XTP	44	48	1
XTP	44	48	6
XST	44	96	1
SLR	44	96	1	96	72	7
XST	44	96	6
SLL	44	96	6	96	72	0
TTP	44	240	0	C	1	M1
BRK	44	336	1
BST	44	336	6
SLL	44	336	6	96	96	0
BST	45	96	3
SI_	45	96	3	96	48	1
BST	45	192	5
SI_	45	192	5	96	48	7
BST	45	288	4
SI_	45	288	4	96	48	0
BRK	46	0	5
TAP	46	96	6
TAP	46	96	7
TAP	46	144	1
TAP	46	144	4
TAP	46	240	4
TAP	46	240	5
BRK	46	336	2
BST	46	336	7
SXR	46	336	7	96	144	3
TAP	47	48	3
TAP	47	96	2
TAP	47	144	1
TAP	47	192	0
TAP	47	288	6
TAP	47	288	7
TAP	47	336	0
TAP	47	336	5
TAP	48	48	0
TAP	48	48	1
STR	48	96	2
SLR	48	96	2	96	96	0
STR	48	96	7
SLL	48	96	7	96	96	1
TTP	48	264	0	C	1	M1
HLD	49	0	7	384
TTP	49	96	0	E	0	M1
TTP	49	192	0	C	0	M1
TTP	49	288	4	E	0	M1
HLD	50	0	3	144
TAP	50	96	2
STR	50	144	2
SCL	50	144	2	96	96	5
HLD	51	0	0	384
TTP	51	96	0	E	0	M1
TTP	51	192	0	C	0	M1
TTP	51	288	4	E	0	M1
HLD	52	0	4	96
STR	52	96	5
SCR	52	96	5	96	96	2
SUR	52	96	5	96	96	2
TAP	53	0	1
TAP	53	0	3
TAP	53	96	5
STR	53	144	4
SI_	53	144	4	96	48	0
HLD	53	144	6	96
TAP	53	336	2
TAP	53	336	5
TAP	54	48	2
TAP	54	48	3
BST	54	96	0
SCR	54	96	0	96	96	7
BRK	54	96	5
TTP	54	192	0	C	1	M1
STR	55	0	2
SUL	55	0	2	96	96	4
STR	55	96	4
SCR	55	96	4	96	480	3
TAP	56	0	5
TAP	56	96	6
TAP	56	192	7
TAP	56	288	0
TAP	57	0	1
TAP	57	48	1
TAP	57	96	0
TAP	57	96	2
TAP	57	192	5
TAP	57	240	4
TAP	57	288	5
TAP	57	336	3
HLD	57	336	6	144
TAP	58	48	7
STR	58	96	7
SI_	58	96	7	96	48	3
XST	58	192	7
SCL	58	192	7	96	48	4
SCR	58	192	7	96	48	2
XTP	58	288	7
XTP	59	0	3
XST	59	0	4
SI_	59	0	4	96	48	0
TAP	59	96	1
STR	59	192	3
SI_	59	192	3	96	48	7
TAP	59	192	4
TAP	59	288	6
TAP	60	0	0
TAP	60	48	7
STR	60	96	0
SXL	60	96	0	96	96	3
STR	60	96	6
SXR	60	96	6	96	96	3
BRK	61	0	1
BRK	61	0	3
TAP	61	48	4
TAP	61	96	5
BRK	61	144	4
BRK	61	144	6
TAP	61	240	0
TAP	61	288	0
BRK	61	336	1
BRK	61	336	7
TAP	62	48	3
TAP	62	48	4
XTP	62	96	1
XTP	62	96	6
TAP	62	192	3
TAP	62	240	4
TAP	62	288	2
TAP	62	288	5
HLD	63	0	3	1152
TAP	63	0	5
TAP	63	96	5
TTP	63	192	0	C	0	M1
TAP	64	0	6
TAP	64	96	6
TTP	64	192	0	C	0	M1
TAP	65	0	7
TAP	65	96	7
TAP	65	192	0
TAP	65	288	0
STR	66	0	1
SCL	66	0	1	96	96	5
TAP	66	288	3
TAP	66	288	4
TAP	67	0	2
HLD	67	0	4	768
TAP	67	96	2
TTP	67	192	0	C	0	M1
TAP	68	0	1
TAP	68	96	1
TAP	68	192	0
TAP	68	288	7
STR	69	0	6
SCR	69	0	6	96	96	3
STR	69	240	7
SF_	69	240	7	96	192	3
TAP	70	288	1
TAP	70	288	6
XST	71	0	0
SI_	71	0	0	96	48	2
XTP	71	0	4
TAP	71	96	3
TAP	71	192	0
TAP	71	192	4
TAP	71	288	2
TAP	71	288	3
XTP	72	0	3
XST	72	0	7
SI_	72	0	7	96	48	5
TAP	72	96	4
TAP	72	192	3
TAP	72	192	7
TAP	72	288	4
TAP	72	288	5
TAP	73	0	0
HLD	73	0	4	192
TAP	73	96	5
TAP	73	192	2
TAP	73	240	4
TAP	73	288	3
HLD	74	0	3	192
TAP	74	0	7
TAP	74	96	2
TAP	74	192	4
TAP	74	240	3
TAP	74	288	2
TAP	74	288	5
STR	74	336	1
SCR	74	336	1	96	336	7
STR	74	336	6
SCL	74	336	6	96	336	0
TTP	76	192	0	C	0	M1
XST	77	0	3
SI_	77	0	3	96	192	0
XST	78	0	4
SI_	78	0	4	96	192	7
XST	79	0	3
SI_	79	0	3	96	192	0
XST	80	0	4
SI_	80	0	4	96	192	7
TTP	81	0	0	C	0	M1
TTP	81	96	0	C	0	M1
TTP	81	192	0	C	0	M1
TTP	81	288	0	C	0	M1
TTP	82	0	0	C	0	M1
TTP	82	96	0	C	0	M1
TTP	82	192	0	C	0	M1
TTP	82	288	0	C	0	M1
XTP	83	0	1
XTP	83	0	6
TAP	83	48	2
TAP	83	96	3
XST	83	144	4
SI_	83	144	4	96	48	1
XST	83	144	5
SI_	83	144	5	96	48	0
XST	83	336	7
SCL	83	336	7	96	96	0
XTP	84	240	2
XTP	84	288	5
STR	84	336	1
SLR	84	336	1	96	48	7
STR	84	336	6
SLL	84	336	6	96	48	0
TTP	85	84	0	C	1	M1
BST	85	192	2
SI_	85	192	2	96	48	0
BST	85	288	3
SI_	85	288	3	96	48	7
BRK	86	0	2
TAP	86	96	0
TAP	86	96	1
TAP	86	144	3
TAP	86	144	6
TAP	86	240	2
TAP	86	240	3
BST	86	336	0
SXL	86	336	0	96	144	3
BRK	86	336	5
TAP	87	48	7
TAP	87	96	6
TAP	87	144	5
TAP	87	192	4
TAP	87	288	0
TAP	87	288	5
TAP	87	336	0
TAP	87	336	5
TAP	88	48	2
TAP	88	48	7
TAP	88	96	2
STR	88	96	7
SCL	88	96	7	96	96	2
TTP	88	240	0	C	1	M1
HLD	89	0	7	384
TTP	89	96	0	E	0	M1
TTP	89	192	0	C	0	M1
TTP	89	288	4	E	0	M1
HLD	90	0	3	144
TAP	90	96	2
STR	90	144	2
SCL	90	144	2	96	96	5
HLD	91	0	0	384
TTP	91	96	0	E	0	M1
TTP	91	192	0	C	0	M1
TTP	91	288	4	E	0	M1
HLD	92	0	4	96
STR	92	96	5
SCR	92	96	5	96	96	2
SUR	92	96	5	96	96	2
TAP	93	0	1
TAP	93	0	3
TAP	93	96	5
STR	93	144	4
SI_	93	144	4	96	48	0
HLD	93	144	6	96
TAP	93	336	2
TAP	93	336	5
TAP	94	48	2
TAP	94	48	3
BST	94	96	0
SCR	94	96	0	96	96	7
BRK	94	96	5
HLD	95	0	1	96
HLD	95	0	6	96
STR	95	144	3
SXR	95	144	3	96	144	0
STR	95	144	4
SXL	95	144	4	96	144	7
TAP	95	192	3
TAP	95	192	4
TTP	95	360	0	C	1	M1
XST	97	0	0
SI_	97	0	0	96	48	2
XTP	97	0	5
TAP	97	48	6
TAP	97	96	7
STR	97	192	0
SI_	97	192	0	96	48	4
TAP	97	192	5
TAP	97	240	6
TAP	97	288	7
STR	98	0	0
SI_	98	0	0	96	48	2
TAP	98	0	5
TAP	98	48	6
TAP	98	96	7
STR	98	192	0
SI_	98	192	0	96	48	4
TAP	98	192	5
TAP	98	240	6
TAP	98	288	7
TAP	99	0	1
TAP	99	48	1
TAP	99	96	0
TAP	99	96	2
TAP	99	192	5
TAP	99	240	4
TAP	99	288	5
TAP	99	336	3
HLD	99	336	6	144
TAP	100	48	7
STR	100	96	7
SI_	100	96	7	96	48	3
XST	100	192	7
SCL	100	192	7	96	48	4
SCR	100	192	7	96	48	2
XTP	100	288	7
XTP	101	0	3
XST	101	0	4
SI_	101	0	4	96	48	0
TAP	101	48	2
TAP	101	96	1
STR	101	192	3
SI_	101	192	3	96	48	7
TAP	101	192	4
TAP	101	240	5
TAP	101	288	6
TAP	102	0	5
TAP	102	48	4
STR	102	96	3
SXR	102	96	3	96	96	0
STR	102	96	5
SXL	102	96	5	96	96	0
BRK	103	0	0
BRK	103	0	2
TAP	103	48	3
TAP	103	96	4
BRK	103	144	5
BRK	103	144	7
TAP	103	240	2
TAP	103	240	5
TAP	103	288	1
TAP	103	288	6
BST	103	336	0
SCR	103	336	0	96	144	7
BRK	103	336	7
TTP	104	240	0	C	1	M1
TTP	104	240	1	B	0	M1
TTP	104	240	2	B	0	M1
TTP	104	240	5	B	0	M1
TTP	104	240	6	B	0	M1
XST	105	0	3
SI_	105	0	3	96	48	7
XTP	105	0	4
TAP	105	48	5
TAP	105	96	6
STR	105	192	2
SI_	105	192	2	96	48	0
TAP	105	192	5
TAP	105	240	6
TAP	105	288	7
STR	106	0	3
SI_	106	0	3	96	48	7
TAP	106	0	4
TAP	106	48	5
TAP	106	96	6
STR	106	192	2
SI_	106	192	2	96	48	0
TAP	106	192	5
TAP	106	240	6
TAP	106	288	7
STR	107	0	3
SI_	107	0	3	96	48	7
TAP	107	0	4
TAP	107	48	5
TAP	107	96	6
TAP	107	192	5
TAP	107	240	4
TAP	107	288	5
XTP	107	336	2
XTP	107	336	7
TAP	108	48	1
TAP	108	48	6
TAP	108	96	0
STR	108	96	7
SI_	108	96	7	96	48	3
XST	108	192	7
SCL	108	192	7	96	48	4
SCR	108	192	7	96	48	2
XTP	108	288	7
XTP	109	0	3
XST	109	0	4
SI_	109	0	4	96	48	0
TAP	109	48	2
TAP	109	96	1
TAP	109	192	2
STR	109	192	5
SI_	109	192	5	96	48	7
TAP	109	240	1
TAP	109	288	0
TAP	110	0	3
STR	110	0	4
SI_	110	0	4	96	48	0
TAP	110	48	2
TAP	110	96	1
TAP	110	192	3
TAP	110	192	4
TAP	110	240	3
TAP	110	240	4
TAP	110	288	2
TAP	110	288	5
TAP	110	336	1
TAP	110	336	6
BRK	111	0	0
BRK	111	0	7
TAP	111	96	2
TAP	111	96	3
BRK	111	144	0
BRK	111	144	5
TAP	111	240	4
TAP	111	240	5
TAP	111	288	4
TAP	111	288	5
BRK	111	336	2
BRK	111	336	7
TAP	112	48	2
TAP	112	48	5
BST	112	96	0
SCR	112	96	0	96	96	7
BRK	112	96	7
TTP	113	0	1	B	0	M1
TTP	113	0	2	B	0	M1
TTP	113	0	5	B	0	M1
TTP	113	0	6	B	0	M1
TTP	113	144	0	B	0	M1
TTP	113	144	3	B	0	M1
TTP	113	144	4	B	0	M1
TTP	113	144	7	B	0	M1
BST	113	336	0
SCR	113	336	0	96	720	7
BST	113	336	7
SCL	113	336	7	96	720	0

T_REC_TAP	384
T_REC_BRK	30
T_REC_XTP	36
T_REC_HLD	26
T_REC_XHO	1
T_REC_STR	74
T_REC_BST	19
T_REC_XST	22
T_REC_TTP	49
T_REC_THO	0
T_REC_SLD	125
T_REC_ALL	766
T_NUM_TAP	565
T_NUM_BRK	49
T_NUM_HLD	27
T_NUM_SLD	125
T_NUM_ALL	766
T_JUDGE_TAP	614
T_JUDGE_HLD	142
T_JUDGE_SLD	125
T_JUDGE_ALL	881
TTM_EACHPAIRS	163
TTM_SCR_TAP	282500
TTM_SCR_BRK	127400
TTM_SCR_HLD	27000
TTM_SCR_SLD	187500
TTM_SCR_ALL	624400
TTM_SCR_S	600950
TTM_SCR_SS	619500
TTM_RAT_ACV	10079

