VERSION	0.00.00	1.03.00
FES_MODE	0
BPM_DEF	178.000	178.000	178.000	178.000
MET_DEF	4	4
RESOLUTION	384
CLK_DEF	384
COMPATIBLE_CODE	MA2

BPM	0	0	178.000
MET	0	0	4	4

TAP	2	0	3
TAP	2	0	4
TAP	2	96	3
TAP	2	96	4
TAP	2	192	1
TAP	2	192	3
TAP	2	288	1
TAP	2	288	3
TAP	3	0	3
TAP	3	0	4
TAP	3	96	3
TAP	3	96	4
TAP	3	192	4
TAP	3	192	6
TAP	3	288	4
TAP	3	288	6
TAP	4	0	3
TAP	4	48	3
TAP	4	96	4
HLD	4	144	4	96
TAP	4	240	3
HLD	4	336	2	96
HLD	4	336	5	96
TAP	5	96	2
TAP	5	96	5
XTP	5	192	1
XTP	5	192	7
XTP	5	288	1
XTP	5	288	7
TAP	6	0	3
TAP	6	0	4
TAP	6	96	3
TAP	6	96	4
TAP	6	192	4
TAP	6	192	6
TAP	6	288	4
TAP	6	288	6
TAP	7	0	3
TAP	7	0	4
TAP	7	96	3
TAP	7	96	4
TAP	7	192	1
TAP	7	192	3
TAP	7	288	1
TAP	7	288	3
TAP	8	0	3
TAP	8	0	4
TAP	8	96	6
TAP	8	144	6
STR	8	240	0
SCR	8	240	0	96	240	6
TAP	8	288	0
TAP	9	288	0
TAP	9	288	7
XTP	10	0	1
XTP	10	48	1
XTP	10	144	2
XTP	10	144	5
XTP	10	240	3
XTP	10	240	4
HLD	11	0	2	672
TAP	11	96	3
TAP	11	192	4
TAP	11	288	3
TAP	12	0	4
TAP	12	96	5
TAP	12	192	4
TAP	12	288	3
TAP	13	0	2
TAP	13	0	3
TAP	13	96	1
TAP	13	192	0
TAP	13	192	7
TAP	13	288	6
TAP	14	0	4
TAP	14	0	5
TAP	14	96	3
TAP	14	96	4
TAP	14	192	2
TAP	14	192	3
TAP	14	288	3
TAP	14	288	4
HLD	15	0	5	672
TAP	15	96	4
TAP	15	192	3
TAP	15	288	4
TAP	16	0	3
TAP	16	96	2
TAP	16	192	3
TAP	16	288	4
TAP	17	0	4
TAP	17	0	5
TAP	17	96	3
TAP	17	96	5
TAP	17	192	2
TAP	17	192	5
TAP	17	288	1
TAP	17	288	6
XTP	17	336	1
XTP	17	336	6
XTP	18	48	2
XTP	18	48	3
XTP	18	144	4
XTP	18	144	5
TAP	18	240	1
TAP	18	240	6
TAP	18	288	1
TAP	18	288	6
TAP	19	0	2
TAP	19	0	3
TAP	19	96	4
TAP	19	96	5
TAP	19	192	6
HLD	19	240	6	480
TAP	19	336	4
TAP	20	48	2
TAP	20	144	3
TAP	20	240	1
TAP	20	336	0
TAP	21	48	1
TAP	21	48	7
TAP	21	96	1
TAP	21	96	7
TAP	21	192	0
TAP	21	192	6
TAP	21	240	0
STR	21	240	6
SCR	21	240	6	96	144	2
XTP	22	192	1
XTP	22	192	6
HLD	22	336	1	96
TAP	23	48	7
TAP	23	96	7
TAP	23	192	0
TAP	23	192	6
TAP	23	240	0
TAP	23	240	6
TAP	23	336	1
TAP	23	336	4
TAP	24	48	5
TAP	24	96	5
TAP	24	192	3
TAP	24	192	4
TAP	24	240	3
TAP	24	240	4
TAP	24	336	7
TAP	25	48	0
TAP	25	48	6
TAP	25	96	0
TAP	25	96	6
TAP	25	192	0
TAP	25	192	7
TAP	25	288	1
TAP	25	288	6
XTP	25	336	1
XST	25	336	6
SCL	25	336	6	96	144	1
XTP	26	288	0
TTP	27	0	7	B	0	M1
TTP	27	96	6	B	0	M1
TTP	27	192	5	B	0	M1
TTP	27	288	4	B	0	M1
TTP	28	0	0	B	0	M1
TTP	28	96	1	B	0	M1
TTP	28	192	2	B	0	M1
TTP	28	288	3	B	0	M1
TTP	29	0	7	B	0	M1
TTP	29	96	6	B	0	M1
TTP	29	192	5	B	0	M1
TTP	29	288	4	B	0	M1
TTP	30	0	2	B	0	M1
TTP	30	0	3	E	0	M1
TTP	30	96	6	B	0	M1
TTP	30	96	7	E	0	M1
TTP	30	192	0	B	0	M1
TTP	30	192	1	E	0	M1
TTP	30	288	4	B	0	M1
TTP	30	288	5	E	0	M1
TAP	31	0	6
TAP	31	96	6
TAP	31	96	7
TAP	31	192	6
TAP	31	288	0
TAP	31	288	5
TAP	32	0	1
TAP	32	96	0
TAP	32	96	1
TAP	32	192	1
TAP	32	288	2
TAP	32	288	7
STR	33	0	0
SCR	33	0	0	96	96	3
STR	33	192	7
SCL	33	192	7	96	96	4
TAP	34	0	3
TAP	34	96	2
TAP	34	96	4
STR	34	192	5
SCL	34	192	5	96	288	7
TAP	34	288	0
TAP	34	336	0
TAP	35	336	0
TAP	35	336	7
TAP	36	48	1
TAP	36	48	6
TAP	36	96	1
TAP	36	96	6
TTP	36	192	0	C	1	M1
BRK	37	0	0
BRK	37	0	7
STR	37	96	3
SI_	37	96	3	96	48	1
STR	37	96	4
SI_	37	96	4	96	48	0
STR	37	288	3
SI_	37	288	3	96	48	7
STR	37	288	4
SI_	37	288	4	96	48	6
TAP	38	96	3
TAP	38	96	4
TAP	38	192	0
TAP	38	192	1
TAP	38	288	4
TAP	38	288	5
TAP	39	0	2
TAP	39	0	4
TTP	39	96	0	B	0	M1
TTP	39	96	1	B	0	M1
TTP	39	96	1	E	0	M1
TTP	39	96	2	E	0	M1
TAP	39	192	3
TAP	39	192	5
TTP	39	288	6	B	0	M1
TTP	39	288	6	E	0	M1
TTP	39	288	7	B	0	M1
TTP	39	288	7	E	0	M1
TAP	40	0	2
TAP	40	0	5
TTP	40	96	0	C	0	M1
TTP	40	96	3	B	0	M1
TTP	40	96	4	B	0	M1
BRK	40	240	0
BRK	40	240	7
TAP	41	0	1
HLD	41	0	6	96
TAP	41	96	4
TAP	41	144	4
TAP	41	240	2
STR	41	240	3
SSR	41	240	3	96	192	7
BRK	42	240	0
BRK	42	240	6
HLD	42	336	1	96
TAP	43	48	3
HLD	43	144	6	96
STR	43	240	4
SCL	43	240	4	96	192	5
BRK	44	240	7
TAP	45	0	0
TAP	45	0	7
STR	45	96	3
SI_	45	96	3	96	48	7
STR	45	96	4
SI_	45	96	4	96	48	6
STR	45	288	3
SI_	45	288	3	96	48	1
STR	45	288	4
SI_	45	288	4	96	48	0
TAP	46	96	3
TAP	46	96	4
TAP	46	192	6
TAP	46	192	7
TAP	46	288	2
TAP	46	288	3
TAP	47	0	3
TAP	47	0	5
TTP	47	96	6	B	0	M1
TTP	47	96	6	E	0	M1
TTP	47	96	7	B	0	M1
TTP	47	96	7	E	0	M1
TAP	47	192	2
TAP	47	192	4
TTP	47	288	0	B	0	M1
TTP	47	288	1	B	0	M1
TTP	47	288	1	E	0	M1
TTP	47	288	2	E	0	M1
TAP	48	0	2
TAP	48	0	5
TTP	48	96	0	C	0	M1
TTP	48	96	3	B	0	M1
TTP	48	96	4	B	0	M1
BRK	48	240	0
BRK	48	240	7
TAP	49	0	0
HLD	49	0	1	288
TAP	49	96	3
TAP	49	192	0
TAP	49	288	3
TAP	50	0	2
TAP	50	0	4
TAP	50	96	4
TAP	50	96	5
TAP	50	144	4
TAP	50	144	5
TAP	50	240	0
TAP	50	240	7
TAP	50	336	6
HLD	51	0	6	288
TAP	51	96	4
TAP	51	192	7
TAP	51	288	4
TAP	52	0	3
TAP	52	0	5
TAP	52	96	2
TAP	52	96	4
TAP	52	192	0
TAP	52	192	1
TAP	52	240	0
TAP	52	240	1
STR	53	0	0
SUL	53	0	0	96	144	3
STR	53	0	7
SUR	53	0	7	96	144	4
TAP	53	336	2
TAP	53	336	5
TAP	54	48	1
TAP	54	48	6
BRK	54	96	1
BRK	54	96	6
TAP	55	0	3
TAP	55	0	4
TAP	55	96	3
TAP	55	96	4
TAP	55	192	4
TAP	55	192	6
TAP	55	288	4
TAP	55	288	6
TAP	56	0	3
TAP	56	0	4
TAP	56	96	3
TAP	56	96	4
TAP	56	192	1
TAP	56	192	3
TAP	56	288	1
TAP	56	288	3
TAP	57	0	4
TAP	57	48	4
TAP	57	96	3
HLD	57	144	3	96
TAP	57	240	4
HLD	57	336	2	96
HLD	57	336	5	96
TAP	58	96	2
TAP	58	96	5
XTP	58	192	0
XTP	58	192	6
XTP	58	288	0
XTP	58	288	6
TAP	59	0	3
TAP	59	0	4
TAP	59	96	3
TAP	59	96	4
TAP	59	192	1
TAP	59	192	3
TAP	59	288	1
TAP	59	288	3
TAP	60	0	3
TAP	60	0	4
TAP	60	96	3
TAP	60	96	4
TAP	60	192	4
TAP	60	192	6
TAP	60	288	4
TAP	60	288	6
TAP	61	0	3
TAP	61	0	4
TAP	61	96	1
TAP	61	144	1
STR	61	240	7
SCL	61	240	7	96	144	1
TAP	61	288	7
XTP	62	192	0
XTP	62	192	7
STR	63	0	2
SV_	63	0	2	96	192	3
TAP	63	0	3
TAP	64	0	4
STR	64	0	5
SUR	64	0	5	96	192	3
STR	65	0	2
SUL	65	0	2	96	192	5
TAP	65	0	3
TAP	66	0	4
STR	66	0	5
SUR	66	0	5	96	192	2
HLD	67	0	2	288
STR	67	0	3
SCL	67	0	3	96	192	0
HLD	68	0	6	288
STR	68	0	7
SCL	68	0	7	96	192	4
XTP	69	0	3
XTP	69	0	4
XHO	69	144	2	96
XHO	69	144	5	96
XHO	69	336	1	96
XHO	69	336	6	96
XHO	70	144	0	96
XHO	70	144	7	96
XTP	70	288	0
XTP	70	288	7
TAP	71	0	1
TAP	71	96	2
TAP	71	192	3
TAP	71	288	3
TAP	71	288	4
TAP	72	0	4
TAP	72	96	5
TAP	72	192	6
TAP	72	288	0
TAP	72	288	7
TAP	73	0	1
TAP	73	48	1
TAP	73	96	7
TAP	73	144	7
TAP	73	192	0
TAP	73	240	0
TAP	73	288	6
TAP	73	336	6
TAP	74	0	0
TAP	74	48	0
TAP	74	96	7
TAP	74	144	7
TAP	74	192	1
TAP	74	192	6
STR	74	288	2
SCL	74	288	2	96	480	4
STR	74	288	5
SCR	74	288	5	96	480	3
TAP	74	336	2
TAP	74	336	5
XTP	76	192	3
XTP	76	192	4
THO	77	0	0	1344	C	0	M1
TTP	77	192	7	B	0	M1
TTP	78	192	0	B	0	M1
TTP	79	192	0	E	0	M1
TAP	81	0	5
TAP	81	96	5
TAP	81	192	4
TAP	81	192	5
TAP	81	288	3
TAP	81	288	4
TAP	82	0	2
TAP	82	96	2
TAP	82	192	2
TAP	82	192	3
TAP	82	288	3
TAP	82	288	4
HLD	83	0	2	96
HLD	83	0	5	96
TAP	83	144	2
TAP	83	144	5
THO	83	336	0	288	C	1	M1
BRK	85	96	1
BRK	85	96	6
TAP	85	192	3
TAP	85	192	4
TAP	85	288	0
TAP	85	288	7
TAP	86	0	2
TAP	86	0	5
TAP	86	96	7
TAP	86	144	7
TAP	86	240	0
TAP	86	240	1
TAP	86	336	2
TAP	86	336	4
TAP	87	48	3
TAP	87	48	5
TAP	87	144	6
TAP	87	144	7
TAP	87	192	6
TAP	87	192	7
TAP	87	288	0
TAP	87	288	1
TAP	87	336	0
HLD	87	336	1	144
TAP	88	48	6
TAP	88	96	6
BRK	88	240	0
BRK	88	240	7
HLD	89	0	2	288
TAP	89	0	3
TAP	89	96	0
TAP	89	192	3
TAP	89	288	0
TAP	90	0	1
TAP	90	0	7
TAP	90	96	6
TAP	90	96	7
TAP	90	144	6
TAP	90	144	7
TAP	90	240	3
TAP	90	240	4
TAP	90	336	5
HLD	91	0	5	288
TAP	91	96	7
TAP	91	192	4
TAP	91	288	7
TAP	92	0	0
TAP	92	0	6
TAP	92	96	1
TAP	92	96	7
TAP	92	192	2
TAP	92	192	3
TAP	92	240	2
TAP	92	240	3
HLD	93	0	5	96
TAP	93	96	4
TAP	93	144	4
TAP	93	240	2
TAP	93	240	7
TAP	93	336	0
TAP	93	336	7
TAP	94	48	2
TAP	94	48	5
TAP	94	96	2
TAP	94	96	5
XTP	94	192	4
XTP	94	288	3
THO	95	0	0	336	C	1	M1
TAP	96	192	0
TAP	96	192	7
TAP	96	288	1
TAP	96	288	6
TAP	97	0	3
TAP	97	0	4
TAP	97	96	3
TAP	97	96	4
TAP	97	192	1
TAP	97	192	3
TAP	97	288	1
TAP	97	288	3
TAP	98	0	3
TAP	98	0	4
TAP	98	96	3
TAP	98	96	4
TAP	98	192	4
TAP	98	192	6
TAP	98	288	4
TAP	98	288	6
TAP	99	0	3
TAP	99	48	3
TAP	99	96	4
HLD	99	144	4	96
TAP	99	240	3
HLD	99	336	2	96
HLD	99	336	5	96
TAP	100	96	2
TAP	100	96	5
BRK	100	192	1
BRK	100	192	7
BRK	100	288	1
BRK	100	288	7
TAP	101	0	3
TAP	101	0	4
TAP	101	96	3
TAP	101	96	4
TAP	101	192	4
TAP	101	192	6
TAP	101	288	4
TAP	101	288	6
TAP	102	0	3
TAP	102	0	4
TAP	102	96	3
TAP	102	96	4
TAP	102	192	1
TAP	102	192	3
TAP	102	288	1
TAP	102	288	3
TAP	103	0	3
TAP	103	0	4
TAP	103	96	6
TAP	103	96	7
TAP	103	144	6
TAP	103	144	7
TAP	103	240	0
TAP	103	240	1
STR	103	288	0
SCR	103	288	0	96	168	6
TAP	103	288	1
BRK	104	240	0
BRK	104	240	7
TAP	105	0	0
TAP	105	0	7
TAP	105	96	0
TAP	105	96	7
TAP	105	192	5
TAP	105	192	7
TAP	105	288	5
TAP	105	288	7
TAP	106	0	0
TAP	106	0	7
TAP	106	96	0
TAP	106	96	7
TAP	106	192	0
TAP	106	192	2
TAP	106	288	0
TAP	106	288	2
TAP	107	0	7
TAP	107	48	7
TAP	107	96	0
HLD	107	144	0	96
TAP	107	240	7
HLD	107	336	1	96
HLD	107	336	6	96
TAP	108	96	1
TAP	108	96	6
BRK	108	192	0
BRK	108	192	6
BRK	108	288	0
BRK	108	288	6
TAP	109	0	0
TAP	109	0	7
TAP	109	96	0
TAP	109	96	7
TAP	109	192	0
TAP	109	192	2
TAP	109	288	0
TAP	109	288	2
TAP	110	0	0
TAP	110	0	7
TAP	110	96	0
TAP	110	96	7
TAP	110	192	5
TAP	110	192	7
TAP	110	288	5
TAP	110	288	7
TAP	111	0	0
TAP	111	0	7
TAP	111	96	1
TAP	111	96	3
TAP	111	144	1
TAP	111	144	3
TAP	111	240	2
TAP	111	240	5
TAP	111	336	3
TAP	111	336	4
TAP	112	48	4
TAP	112	48	6
TAP	112	96	4
TAP	112	96	6
HLD	112	192	7	96
XTP	112	288	0
TTP	113	336	0	C	1	M1
TTP	113	336	1	B	0	M1
TTP	113	336	2	B	0	M1
TTP	113	336	5	B	0	M1
TTP	113	336	6	B	0	M1

T_REC_TAP	454
T_REC_BRK	25
T_REC_XTP	35
T_REC_HLD	30
T_REC_XHO	6
T_REC_STR	27
T_REC_BST	0
T_REC_XST	1
T_REC_TTP	51
T_REC_THO	3
T_REC_SLD	28
T_REC_ALL	660
T_NUM_TAP	568
T_NUM_BRK	25
T_NUM_HLD	39
T_NUM_SLD	28
T_NUM_ALL	660
T_JUDGE_TAP	593
T_JUDGE_HLD	170
T_JUDGE_SLD	28
T_JUDGE_ALL	791
TTM_EACHPAIRS	225
TTM_SCR_TAP	284000
TTM_SCR_BRK	65000
TTM_SCR_HLD	39000
TTM_SCR_SLD	42000
TTM_SCR_ALL	430000
TTM_SCR_S	414700
TTM_SCR_SS	427500
TTM_RAT_ACV	10058

