VERSION	0.00.00	1.03.00
FES_MODE	0
BPM_DEF	178.000	178.000	178.000	178.000
MET_DEF	4	4
RESOLUTION	384
CLK_DEF	384
COMPATIBLE_CODE	MA2

BPM	0	0	178.000
MET	0	0	4	4

TAP	2	0	2
TAP	2	96	2
TAP	2	192	2
TAP	3	0	4
TAP	3	96	4
TAP	3	192	4
TAP	4	0	3
TAP	4	96	3
TAP	4	192	3
TAP	5	0	5
TAP	5	96	5
TAP	5	192	4
TAP	5	192	5
TAP	6	0	6
TAP	6	96	6
TAP	6	192	6
TAP	7	0	0
TAP	7	96	0
TAP	7	192	0
TAP	8	0	7
TAP	8	96	7
TAP	8	192	7
TAP	9	0	0
TAP	9	96	7
TAP	9	192	0
TAP	9	192	7
XTP	10	0	1
XTP	10	0	6
HLD	11	0	2	192
TAP	11	192	3
HLD	12	0	5	192
TAP	12	192	4
HLD	13	0	3	192
TAP	13	192	4
TAP	14	0	2
TAP	14	96	2
TAP	14	192	2
HLD	15	0	1	192
TAP	15	192	0
HLD	16	0	6	192
TAP	16	192	7
STR	17	0	0
SI_	17	0	0	96	288	3
STR	17	0	7
SI_	17	0	7	96	288	4
XTP	18	192	2
XTP	18	192	5
HLD	19	0	1	192
TAP	19	192	3
HLD	20	0	6	192
TAP	20	192	4
HLD	21	0	1	192
TAP	21	192	0
TAP	22	0	7
TAP	22	96	7
XTP	22	192	7
HLD	23	0	6	192
TAP	23	192	4
HLD	24	0	1	192
TAP	24	192	3
TAP	25	0	0
TAP	25	96	0
TAP	25	192	7
TAP	25	288	7
TAP	26	0	0
TAP	26	0	7
XTP	26	192	1
XTP	26	192	6
TTP	27	0	2	B	0	L1
TTP	27	192	3	B	0	L1
TTP	28	0	4	E	0	L1
TTP	28	192	4	B	0	L1
TTP	29	0	5	B	0	L1
TTP	29	192	6	E	0	L1
THO	30	0	0	192	C	0	L1
TTP	31	0	2	E	0	L1
TTP	31	192	3	B	0	L1
TTP	31	192	3	E	0	L1
TTP	32	0	6	E	0	L1
TTP	32	192	4	B	0	L1
TTP	32	192	5	E	0	L1
TTP	33	0	2	B	0	L1
TTP	33	0	2	E	0	L1
TTP	33	192	5	B	0	L1
TTP	33	192	6	B	0	L1
TTP	34	0	0	B	0	L1
TTP	34	0	1	E	0	L1
TTP	34	192	7	B	0	L1
TTP	34	192	7	E	0	L1
THO	35	0	0	384	C	0	L1
XTP	36	192	0
XTP	36	192	7
XTP	37	0	1
TAP	37	96	2
TAP	37	192	2
TAP	37	192	3
TAP	37	288	2
TAP	37	288	3
TAP	38	0	4
TAP	38	96	5
TAP	38	192	3
TAP	38	192	6
TAP	39	0	6
TAP	39	96	5
TAP	39	192	4
TAP	39	192	5
TAP	39	288	4
TAP	39	288	5
TAP	40	0	3
TAP	40	96	2
XTP	40	192	1
XTP	40	192	4
TAP	41	0	1
TAP	41	96	1
TAP	41	192	0
TAP	41	192	1
TAP	42	0	6
TAP	42	96	6
TAP	42	192	6
TAP	42	192	7
TAP	43	0	0
TAP	43	96	0
TAP	43	192	0
TAP	43	192	7
TAP	43	288	0
TAP	43	288	7
HLD	44	0	1	96
HLD	44	0	6	96
XTP	44	192	1
XTP	44	192	6
XTP	45	0	2
TAP	45	96	1
TAP	45	192	0
TAP	45	192	1
TAP	45	288	0
TAP	45	288	1
TAP	46	0	7
TAP	46	96	6
TAP	46	192	0
TAP	46	192	5
TAP	47	0	5
TAP	47	96	6
TAP	47	192	6
TAP	47	192	7
TAP	47	288	6
TAP	47	288	7
TAP	48	0	0
TAP	48	96	1
XTP	48	192	2
XTP	48	192	7
TAP	49	0	2
TAP	49	96	2
TAP	49	96	3
TAP	49	192	1
TAP	49	192	4
TAP	50	0	5
TAP	50	96	4
TAP	50	96	5
TAP	50	192	3
TAP	50	192	6
TAP	51	0	1
TAP	51	96	0
TAP	51	96	1
TAP	51	192	2
TAP	51	192	7
TAP	52	0	0
TAP	52	0	7
TAP	52	96	0
TAP	52	96	7
BRK	52	192	1
BRK	52	192	6
STR	53	0	0
SCR	53	0	0	96	288	3
STR	53	0	7
SCL	53	0	7	96	288	4
XTP	54	192	2
XTP	54	192	5
HLD	55	0	1	192
HLD	55	192	3	192
TAP	56	0	2
TAP	56	96	2
TAP	56	192	2
TAP	56	192	3
HLD	57	0	5	192
HLD	57	192	4	192
TAP	58	0	6
TAP	58	96	6
XTP	58	192	4
XTP	58	192	6
TAP	59	0	2
TAP	59	96	2
TAP	59	192	1
TAP	59	192	3
TAP	60	0	5
TAP	60	96	5
TAP	60	192	4
TAP	60	192	6
THO	61	0	0	336	C	1	L1
STR	63	0	0
SI_	63	0	0	96	288	3
TAP	64	192	4
STR	65	0	4
SI_	65	0	4	96	288	7
TAP	66	192	0
STR	67	0	1
SI_	67	0	1	96	288	4
TAP	68	192	5
STR	69	0	3
SCL	69	0	3	96	288	0
STR	69	0	4
SCR	69	0	4	96	288	7
XTP	70	192	1
XTP	70	192	6
TAP	71	0	0
TAP	71	96	0
TAP	71	192	1
TAP	71	288	1
TAP	72	0	2
TAP	72	0	3
TAP	72	192	1
TAP	72	192	4
TAP	73	0	4
TAP	73	96	4
TAP	73	192	5
TAP	73	288	5
TAP	74	0	6
TAP	74	0	7
TAP	74	192	0
TAP	74	192	5
XST	75	0	0
SCR	75	0	0	96	288	3
XST	75	0	7
SCL	75	0	7	96	288	4
XTP	76	192	2
XTP	76	192	5
TTP	77	0	4	E	0	L1
TTP	77	192	0	C	0	L1
TTP	78	0	0	E	0	L1
TTP	79	0	3	E	0	L1
TTP	79	0	5	E	0	L1
TTP	79	192	2	E	0	L1
TTP	79	192	6	E	0	L1
TTP	80	0	1	E	0	L1
TTP	80	0	7	E	0	L1
TTP	81	0	2	E	0	L1
TTP	81	96	2	B	0	L1
TTP	81	192	3	B	0	L1
TTP	82	0	6	E	0	L1
TTP	82	96	5	B	0	L1
TTP	82	192	4	B	0	L1
TTP	83	0	2	B	0	L1
TTP	83	0	3	B	0	L1
TTP	83	192	5	B	0	L1
TTP	83	192	6	B	0	L1
THO	84	0	0	192	C	0	L1
XHO	85	0	0	96
XHO	85	0	7	96
TAP	85	192	1
TAP	85	288	2
TAP	86	0	2
TAP	86	0	3
TAP	86	96	1
TAP	86	96	4
XTP	86	192	0
XTP	86	192	5
TAP	87	0	0
TAP	87	0	7
TAP	87	96	0
TAP	87	96	7
TAP	87	192	6
TAP	87	288	5
HLD	88	0	4	96
HLD	88	0	5	96
XTP	88	192	3
XTP	88	192	6
XHO	89	0	1	96
TAP	89	96	0
TAP	89	192	2
TAP	89	192	7
HLD	90	0	6	96
TAP	90	96	7
TAP	90	192	0
TAP	90	192	5
HLD	91	0	0	96
TAP	91	96	7
TAP	91	192	1
TAP	91	192	6
TAP	91	288	1
TAP	91	288	6
TAP	92	0	2
TAP	92	0	5
TAP	92	96	3
TAP	92	96	4
BRK	92	192	1
BRK	92	192	6
STR	93	0	0
SCR	93	0	0	96	288	3
STR	93	0	7
SCL	93	0	7	96	288	4
XTP	94	192	1
XTP	94	192	6
THO	95	0	0	336	C	1	L1
XTP	96	192	0
XTP	96	192	7
TAP	97	0	2
TAP	97	96	3
TAP	97	192	4
TAP	97	288	5
TAP	98	0	6
TAP	98	96	7
TAP	98	192	0
TAP	98	192	7
TAP	99	0	5
TAP	99	96	4
TAP	99	192	3
TAP	99	288	2
HLD	100	0	0	96
HLD	100	0	1	96
BRK	100	192	7
BRK	100	288	7
TAP	101	0	0
TAP	101	96	1
TAP	101	192	2
TAP	101	288	3
TAP	102	0	4
TAP	102	96	5
TAP	102	192	4
TAP	102	192	6
TAP	103	0	7
TAP	103	96	7
TAP	103	192	0
TAP	103	288	0
XHO	104	0	0	96
XHO	104	0	7	96
XTP	104	192	1
XTP	104	192	6
XTP	105	0	0
TAP	105	96	1
TAP	105	192	2
TAP	105	288	3
TAP	106	0	4
TAP	106	0	5
TAP	106	96	4
TAP	106	96	5
TAP	106	192	3
TAP	106	192	6
TAP	107	0	7
TAP	107	96	6
TAP	107	192	5
TAP	107	288	4
HLD	108	0	1	96
HLD	108	0	3	96
BRK	108	192	0
BRK	108	288	0
TAP	109	0	1
TAP	109	96	2
TAP	109	192	3
TAP	109	288	4
TAP	110	0	4
TAP	110	0	5
TAP	110	96	4
TAP	110	96	5
XTP	110	192	3
XTP	110	192	6
STR	111	0	2
SLL	111	0	2	96	480	3
STR	111	0	5
SLR	111	0	5	96	480	4
THO	113	0	0	336	C	1	L1

T_REC_TAP	219
T_REC_BRK	8
T_REC_XTP	38
T_REC_HLD	24
T_REC_XHO	5
T_REC_STR	13
T_REC_BST	0
T_REC_XST	2
T_REC_TTP	39
T_REC_THO	6
T_REC_SLD	15
T_REC_ALL	369
T_NUM_TAP	311
T_NUM_BRK	8
T_NUM_HLD	35
T_NUM_SLD	15
T_NUM_ALL	369
T_JUDGE_TAP	319
T_JUDGE_HLD	123
T_JUDGE_SLD	15
T_JUDGE_ALL	457
TTM_EACHPAIRS	80
TTM_SCR_TAP	155500
TTM_SCR_BRK	20800
TTM_SCR_HLD	35000
TTM_SCR_SLD	22500
TTM_SCR_ALL	233800
TTM_SCR_S	226050
TTM_SCR_SS	233000
TTM_RAT_ACV	10034

