VERSION	0.00.00	1.03.00
FES_MODE	0
BPM_DEF	178.000	178.000	178.000	178.000
MET_DEF	4	4
RESOLUTION	384
CLK_DEF	384
COMPATIBLE_CODE	MA2

BPM	0	0	178.000
MET	0	0	4	4

TAP	2	0	0
TAP	3	0	0
TAP	4	0	7
TAP	4	192	7
HLD	5	0	7	192
TAP	6	0	7
TAP	7	0	7
TAP	8	0	0
TAP	8	192	0
XHO	9	0	0	384
XHO	9	0	7	384
TAP	11	0	0
TAP	12	0	0
TAP	13	0	1
TAP	13	192	1
TAP	14	0	1
TAP	15	0	2
TAP	16	0	2
TAP	17	0	3
TAP	17	192	3
XTP	18	0	3
XTP	18	0	4
TAP	19	0	4
TAP	19	192	4
TAP	20	0	4
TAP	21	0	5
TAP	21	192	5
XTP	22	0	4
XTP	22	0	5
TAP	23	0	6
TAP	23	192	6
TAP	24	0	6
TAP	25	0	7
TAP	25	192	7
XTP	26	0	0
XTP	26	0	7
TTP	27	0	6	B	0	L1
TTP	28	0	5	B	0	L1
TTP	29	0	4	B	0	L1
TTP	30	0	3	B	0	L1
TTP	31	0	2	B	0	L1
TTP	32	0	1	B	0	L1
TTP	33	0	0	B	0	L1
TTP	33	0	7	B	0	L1
TTP	34	0	1	B	0	L1
TTP	34	0	6	B	0	L1
THO	35	0	0	336	C	1	L1
TAP	37	0	7
TAP	37	96	7
TAP	37	192	7
TAP	38	0	0
TAP	38	96	0
TAP	38	192	0
STR	39	0	7
SI_	39	0	7	96	288	3
TAP	41	0	1
TAP	41	192	1
TAP	42	0	2
TAP	42	192	2
TAP	43	0	3
TAP	43	96	3
TAP	43	192	3
XTP	44	0	3
XTP	44	0	4
TAP	45	0	4
TAP	45	96	4
TAP	45	192	4
TAP	46	0	3
TAP	46	96	3
TAP	46	192	3
STR	47	0	4
SI_	47	0	4	96	288	0
TAP	49	0	7
TAP	49	192	7
TAP	50	0	6
TAP	50	192	6
TAP	51	0	5
TAP	51	96	5
TAP	51	192	5
HLD	52	0	3	192
HLD	52	0	4	192
TAP	53	0	3
TAP	53	96	3
TAP	53	192	4
TAP	53	288	4
XTP	54	0	3
XTP	54	0	4
BRK	55	0	3
TAP	55	192	3
TAP	56	0	2
TAP	56	192	2
TAP	57	0	1
TAP	57	192	1
TAP	58	0	0
TAP	58	0	7
TAP	58	192	0
TAP	58	192	7
TAP	59	0	6
TAP	59	192	6
TAP	60	0	5
TAP	60	192	5
TAP	61	0	4
TAP	61	192	4
XTP	62	0	3
XTP	62	0	4
HLD	63	0	3	384
HLD	65	0	4	384
HLD	67	0	2	384
HLD	67	0	3	384
HLD	69	0	4	384
HLD	69	0	5	384
TAP	71	0	6
TAP	71	192	6
TAP	72	0	7
TAP	72	96	7
TAP	72	192	7
TAP	73	0	0
TAP	73	192	0
TAP	74	0	1
TAP	74	96	1
TAP	74	192	1
STR	75	0	0
SI_	75	0	0	96	288	3
STR	75	0	7
SI_	75	0	7	96	288	4
XTP	77	0	3
TAP	78	0	3
HLD	79	0	3	384
TAP	81	0	4
TAP	81	96	4
TAP	81	192	4
TAP	82	0	3
TAP	82	96	3
TAP	82	192	3
TTP	83	0	3	B	0	L1
TTP	83	0	4	B	0	L1
TTP	83	192	2	B	0	L1
TTP	83	192	5	B	0	L1
THO	84	0	0	480	C	1	L1
TAP	86	0	7
TAP	86	96	7
TAP	86	192	7
STR	87	0	0
SI_	87	0	0	96	288	4
TAP	89	0	4
TAP	89	0	5
TAP	89	192	4
TAP	89	192	5
TAP	90	0	2
TAP	90	0	3
TAP	90	192	2
TAP	90	192	3
TAP	91	0	1
TAP	91	96	1
TAP	91	192	1
TAP	92	0	0
TAP	92	96	0
TAP	92	192	0
TAP	93	0	7
TAP	93	96	7
TAP	93	192	0
TAP	93	288	0
HLD	94	0	0	192
HLD	94	0	7	192
BRK	95	0	0
BRK	95	0	7
TAP	97	0	0
TAP	97	192	0
TAP	98	0	1
TAP	98	192	1
TAP	99	0	2
TAP	99	192	2
XTP	100	0	3
XTP	100	96	4
XTP	100	192	3
TAP	101	0	4
TAP	101	192	4
TAP	102	0	5
TAP	102	192	5
TAP	103	0	6
TAP	103	192	6
XHO	104	0	0	192
XHO	104	0	7	192
TAP	105	0	7
TAP	105	96	7
TAP	105	192	7
TAP	106	0	6
TAP	106	96	6
TAP	106	192	6
TAP	107	0	5
TAP	107	96	5
TAP	107	192	5
XTP	108	0	4
XTP	108	96	3
XTP	108	192	4
TAP	109	0	3
TAP	109	96	3
TAP	109	192	3
TAP	110	0	4
TAP	110	96	4
TAP	110	192	4
XHO	111	0	3	192
XHO	111	0	4	192
XHO	112	0	2	192
XHO	112	0	5	192
THO	113	0	0	336	C	1	L1

T_REC_TAP	137
T_REC_BRK	3
T_REC_XTP	19
T_REC_HLD	12
T_REC_XHO	8
T_REC_STR	5
T_REC_BST	0
T_REC_XST	0
T_REC_TTP	14
T_REC_THO	3
T_REC_SLD	5
T_REC_ALL	206
T_NUM_TAP	175
T_NUM_BRK	3
T_NUM_HLD	23
T_NUM_SLD	5
T_NUM_ALL	206
T_JUDGE_TAP	178
T_JUDGE_HLD	140
T_JUDGE_SLD	5
T_JUDGE_ALL	323
TTM_EACHPAIRS	22
TTM_SCR_TAP	87500
TTM_SCR_BRK	7800
TTM_SCR_HLD	23000
TTM_SCR_SLD	7500
TTM_SCR_ALL	125800
TTM_SCR_S	121750
TTM_SCR_SS	125500
TTM_RAT_ACV	10023

