VERSION	0.00.00	1.03.00
FES_MODE	0
BPM_DEF	125.000	125.000	125.000	125.000
MET_DEF	4	4
RESOLUTION	384
CLK_DEF	384
COMPATIBLE_CODE	MA2

BPM	0	0	125.000
MET	0	0	8	4
MET	8	0	4	4
MET	17	0	4	1
MET	17	96	8	4
MET	18	96	4	4
MET	19	96	8	4
MET	20	96	4	4
MET	21	96	8	4
MET	22	96	4	4
MET	23	96	8	4
MET	24	96	4	4
MET	25	96	8	6
MET	44	288	8	4
MET	60	288	4	4
MET	68	288	8	6
MET	70	96	8	5
MET	73	144	8	6
MET	74	48	8	5
MET	74	288	8	6
MET	77	288	8	7

TTP	1	0	0	E	0	M1
TTP	1	4	1	E	0	M1
TTP	1	4	7	E	0	M1
TTP	1	8	0	C	1	M1
TTP	1	8	2	E	0	M1
TTP	1	8	6	E	0	M1
TTP	1	12	3	E	0	M1
TTP	1	12	4	E	0	M1
TTP	1	12	5	E	0	M1
XST	1	16	3
SCL	1	16	3	96	464	4
XTP	1	16	4
TTP	3	0	0	E	0	M1
TTP	3	4	1	E	0	M1
TTP	3	4	7	E	0	M1
TTP	3	8	0	C	1	M1
TTP	3	8	2	E	0	M1
TTP	3	8	6	E	0	M1
TTP	3	12	3	E	0	M1
TTP	3	12	4	E	0	M1
TTP	3	12	5	E	0	M1
XTP	3	16	3
XST	3	16	4
SCR	3	16	4	96	464	3
TAP	4	320	3
TAP	4	336	4
TAP	4	368	4
XTP	5	0	3
TAP	5	48	2
TAP	5	48	3
TAP	5	96	2
HLD	5	128	2	48
TAP	5	176	3
TAP	5	224	4
TAP	5	240	3
TAP	5	288	5
TAP	5	320	5
TAP	5	336	4
TAP	5	368	3
TAP	6	0	4
TAP	6	48	4
TAP	6	48	5
TAP	6	96	5
HLD	6	128	5	48
HLD	6	176	4	48
TAP	6	224	5
TAP	6	240	4
TAP	6	272	4
TAP	6	288	3
TAP	6	320	3
TAP	6	336	2
XTP	7	0	1
XTP	7	0	4
TAP	7	48	3
TAP	7	48	6
TAP	7	96	7
HLD	7	128	7	48
HLD	7	176	0	48
TAP	7	224	7
TAP	7	240	0
TAP	7	256	7
TAP	7	272	1
TAP	7	288	6
TAP	7	304	1
TAP	7	320	5
TAP	7	336	2
TAP	7	352	5
TAP	7	368	3
STR	8	0	4
SUL	8	0	4	96	96	3
TTP	8	192	0	C	0	M1
TAP	8	240	3
TAP	8	240	4
TTP	8	288	0	B	0	M1
TTP	8	288	0	C	1	M1
TTP	8	288	0	E	0	M1
TTP	8	288	4	B	0	M1
TTP	8	288	4	E	0	M1
XST	9	0	1
SI_	9	0	1	96	48	4
XTP	9	0	4
TAP	9	32	2
TAP	9	48	3
TAP	9	80	3
TAP	9	96	1
TAP	9	144	5
XTP	9	192	3
XST	9	192	6
SI_	9	192	6	96	48	2
TAP	9	224	5
TAP	9	240	4
TAP	9	272	4
TAP	9	288	6
TAP	9	336	0
TAP	10	0	1
TAP	10	0	3
TAP	10	32	2
TAP	10	48	4
TAP	10	80	3
TAP	10	96	5
TAP	10	128	4
TAP	10	144	6
STR	10	176	0
SI_	10	176	0	96	48	5
STR	10	176	1
SI_	10	176	1	96	48	4
TAP	10	224	2
TAP	10	224	7
BRK	10	272	0
BRK	10	272	1
XTP	11	0	3
XST	11	0	6
SI_	11	0	6	96	48	3
TAP	11	32	5
TAP	11	48	4
TAP	11	80	4
TAP	11	96	6
TAP	11	144	2
XST	11	192	1
SI_	11	192	1	96	48	5
XTP	11	192	4
TAP	11	224	2
TAP	11	240	3
TAP	11	272	3
TAP	11	288	1
TAP	11	336	7
TAP	12	0	4
TAP	12	0	6
TAP	12	32	5
TAP	12	48	3
TAP	12	80	4
TAP	12	96	2
TAP	12	128	3
TAP	12	144	1
STR	12	176	6
SI_	12	176	6	96	48	3
STR	12	176	7
SI_	12	176	7	96	48	2
TAP	12	224	0
TAP	12	224	5
BRK	12	272	6
BRK	12	272	7
HLD	13	0	0	32
TAP	13	0	7
TAP	13	32	3
TAP	13	48	2
TAP	13	80	4
TAP	13	96	3
TAP	13	128	5
TAP	13	144	4
TAP	13	176	0
HLD	13	192	7	32
TAP	13	224	4
TAP	13	240	5
TAP	13	272	3
TAP	13	288	4
TAP	13	320	2
TAP	13	336	3
TAP	13	368	1
STR	14	0	3
SI_	14	0	3	96	48	7
STR	14	48	7
SI_	14	48	7	96	48	3
TTP	14	96	1	B	0	M1
TTP	14	96	2	E	0	M1
TTP	14	144	5	B	0	M1
TTP	14	144	6	E	0	M1
TAP	14	192	0
TAP	14	224	0
BRK	14	272	1
BRK	14	272	7
TAP	14	320	5
TAP	14	336	4
TAP	14	368	2
XTP	15	0	3
TAP	15	48	0
TAP	15	48	7
TAP	15	96	2
STR	15	96	5
SI_	15	96	5	96	48	0
TAP	15	128	4
TAP	15	144	3
TAP	15	176	3
XTP	15	192	5
TAP	15	240	3
STR	15	288	2
SI_	15	288	2	96	48	7
TAP	15	288	5
TAP	15	320	3
TAP	15	336	4
TAP	15	368	4
XST	16	0	2
SCR	16	0	2	96	48	5
TAP	16	48	4
STR	16	96	2
SV_	16	96	2	96	48	7
XTP	16	96	6
TTP	16	144	0	B	0	M1
TTP	16	144	1	B	0	M1
XTP	16	192	2
XTP	16	192	5
TTP	16	240	3	B	0	M1
TTP	16	240	4	B	0	M1
BRK	16	288	1
BRK	16	288	6
XHO	17	0	2	80
XHO	17	0	5	80
XTP	17	96	3
XTP	17	96	4
TAP	17	128	2
TAP	17	144	3
TAP	17	176	4
TAP	17	192	3
TAP	17	224	2
TAP	17	240	3
TAP	17	272	4
TAP	17	288	3
TAP	17	320	2
TAP	17	336	3
TAP	17	368	4
TAP	18	0	3
TAP	18	32	2
TAP	18	48	3
TAP	18	80	4
HLD	18	96	0	288
HLD	18	192	3	48
TTP	18	288	2	B	0	M1
TTP	18	304	3	B	0	M1
TTP	18	320	4	B	0	M1
TTP	18	336	5	B	0	M1
BRK	19	0	7
XTP	19	96	3
XTP	19	96	4
TAP	19	128	5
TAP	19	144	4
TAP	19	176	3
TAP	19	192	4
TAP	19	224	5
TAP	19	240	4
TAP	19	272	3
TAP	19	288	4
TAP	19	320	5
TAP	19	336	4
TAP	19	368	3
TAP	20	0	4
TAP	20	32	5
TAP	20	48	4
TAP	20	80	3
HLD	20	96	7	288
HLD	20	192	4	48
TTP	20	288	1	B	0	M1
TTP	20	288	2	E	0	M1
TTP	20	336	5	B	0	M1
TTP	20	336	6	E	0	M1
BRK	21	0	3
TAP	21	96	3
TAP	21	96	4
TAP	21	128	3
TAP	21	144	1
TAP	21	176	3
TAP	21	192	5
TAP	21	224	3
TAP	21	240	1
TAP	21	272	3
TAP	21	288	5
TAP	21	320	3
TAP	21	336	1
TAP	21	368	3
TAP	22	0	4
TAP	22	16	3
TAP	22	32	4
TAP	22	48	2
TAP	22	64	3
TAP	22	80	2
HLD	22	96	6	288
TTP	22	192	5	B	0	M1
TTP	22	192	5	E	0	M1
TTP	22	240	0	E	0	M1
TTP	22	240	7	B	0	M1
TTP	22	288	3	B	0	M1
TTP	22	288	4	E	0	M1
TTP	22	336	1	B	0	M1
TTP	22	336	1	E	0	M1
BRK	23	0	2
TAP	23	96	3
TAP	23	96	4
TAP	23	128	4
TAP	23	144	6
TAP	23	176	4
TAP	23	192	2
TAP	23	224	4
TAP	23	240	6
TAP	23	272	4
TAP	23	288	2
TAP	23	320	4
TAP	23	336	6
TAP	23	368	4
TAP	24	0	3
TAP	24	16	4
TAP	24	32	3
TAP	24	48	5
TAP	24	64	4
TAP	24	80	5
XHO	24	96	0	48
TTP	24	144	2	B	0	M1
TTP	24	144	3	B	0	M1
XTP	24	192	1
XHO	24	192	5	48
TTP	24	240	0	B	0	M1
TTP	24	240	7	B	0	M1
XHO	24	288	2	48
XTP	24	288	6
TTP	24	336	4	B	0	M1
TTP	24	336	5	B	0	M1
XTP	25	0	3
XHO	25	0	7	48
TTP	25	48	0	C	0	M1
XTP	25	96	0
XTP	25	96	7
STR	25	144	1
SCR	25	144	1	96	32	4
TAP	25	144	6
TAP	25	176	5
STR	25	192	5
SCR	25	192	5	96	32	0
STR	25	240	1
SI_	25	240	1	96	32	5
TAP	25	288	5
TAP	25	336	1
TAP	26	0	6
TAP	26	48	4
STR	26	48	7
SCL	26	48	7	96	32	4
TAP	26	80	3
STR	26	96	3
SCL	26	96	3	96	32	0
STR	26	144	7
SI_	26	144	7	96	32	3
TAP	26	192	3
TAP	26	240	7
TAP	26	288	2
TAP	26	336	0
STR	26	336	1
SI_	26	336	1	96	32	6
TAP	26	368	5
STR	27	0	5
SI_	27	0	5	96	32	0
STR	27	48	1
SCR	27	48	1	96	32	4
TAP	27	96	5
TAP	27	144	1
TAP	27	192	5
TAP	27	240	6
STR	27	240	7
SI_	27	240	7	96	32	4
TAP	27	272	2
STR	27	288	2
SI_	27	288	2	96	32	6
STR	27	336	7
SCR	27	336	7	96	32	2
TAP	28	0	2
TAP	28	48	7
TAP	28	96	0
TAP	28	120	7
TAP	28	144	7
TAP	28	168	0
TAP	28	192	6
TAP	28	216	6
TAP	28	240	0
TAP	28	264	5
TAP	28	288	5
TAP	28	312	0
TAP	28	336	4
TAP	28	360	4
TAP	29	0	0
TAP	29	24	3
TAP	29	48	3
TAP	29	72	0
TTP	29	96	2	E	0	M1
TAP	29	120	0
TTP	29	144	4	E	0	M1
TAP	29	168	0
TTP	29	192	6	E	0	M1
TAP	29	216	0
TTP	29	240	0	C	0	M1
TAP	29	264	0
HLD	29	288	0	48
HLD	29	336	2	48
HLD	30	0	4	48
HLD	30	48	6	48
STR	30	96	0
SXL	30	96	0	96	144	3
SXR	30	96	0	96	144	5
TAP	30	144	3
TAP	30	144	5
BRK	30	192	0
TAP	31	0	4
TAP	31	48	3
TAP	31	96	2
STR	31	96	6
SXR	31	96	6	96	240	3
TAP	31	144	1
TAP	31	160	2
TAP	31	176	3
TAP	31	192	4
TAP	31	240	3
TAP	31	288	2
TAP	31	336	1
TAP	32	0	0
STR	32	48	7
SCL	32	48	7	96	48	4
TAP	32	96	4
TAP	32	128	0
TAP	32	144	7
TAP	32	240	2
TAP	32	240	3
STR	32	288	1
SXL	32	288	1	96	240	4
TAP	32	288	5
TAP	32	336	6
TAP	32	352	5
TAP	32	368	4
TAP	33	0	3
TAP	33	48	4
TAP	33	96	5
TAP	33	144	6
TAP	33	192	7
STR	33	240	0
SCR	33	240	0	96	48	3
TAP	33	288	3
TAP	33	320	7
TAP	33	336	0
TAP	34	48	4
TAP	34	48	5
TAP	34	96	1
STR	34	96	6
SXL	34	96	6	96	240	1
TAP	34	144	2
TAP	34	160	3
TAP	34	176	4
TAP	34	192	5
TAP	34	240	4
TAP	34	288	3
TAP	34	336	2
TAP	35	0	3
TAP	35	48	4
TAP	35	96	5
TAP	35	128	4
TAP	35	128	6
TAP	35	144	4
TAP	35	144	6
TAP	35	192	1
STR	35	192	3
SCR	35	192	3	96	96	2
TAP	35	240	2
TAP	35	240	4
XTP	35	288	3
XHO	35	288	5	80
TAP	36	0	5
TAP	36	48	4
TAP	36	48	6
TAP	36	96	3
TAP	36	96	5
TAP	36	144	2
TAP	36	144	4
TAP	36	192	1
TAP	36	208	3
TAP	36	224	2
TAP	36	240	6
TAP	36	256	4
TAP	36	272	5
TAP	36	288	2
TAP	36	304	4
TAP	36	320	3
TTP	36	336	0	C	1	M1
TAP	37	48	0
TAP	37	64	7
TAP	37	80	0
TAP	37	96	1
STR	37	96	6
SCL	37	96	6	96	32	3
TAP	37	144	3
TAP	37	160	2
TAP	37	176	1
TAP	37	192	0
HLD	37	240	0	48
HLD	37	288	1	48
TAP	37	336	2
TAP	37	368	2
TAP	38	0	3
TAP	38	32	3
TAP	38	48	4
TAP	38	80	4
TAP	38	96	5
TAP	38	128	5
STR	38	144	6
SI_	38	144	6	96	48	3
STR	38	192	3
SCR	38	192	3	96	64	7
STR	38	240	6
SCR	38	240	6	96	48	1
XHO	38	288	2	80
TAP	39	0	2
TAP	39	48	1
TAP	39	48	3
TAP	39	96	2
STR	39	96	4
SI_	39	96	4	96	32	1
TAP	39	144	3
STR	39	144	5
SI_	39	144	5	96	32	0
TAP	39	192	4
TAP	39	192	6
TAP	39	240	5
TAP	39	288	2
TAP	39	320	0
TAP	39	320	7
BRK	39	336	1
BRK	39	336	6
TAP	40	48	7
TAP	40	64	0
TAP	40	80	7
STR	40	96	1
SCR	40	96	1	96	32	4
TAP	40	96	6
TAP	40	144	4
TAP	40	160	5
TAP	40	176	6
TAP	40	192	7
HLD	40	240	7	48
HLD	40	288	6	48
TAP	40	336	5
TAP	40	368	5
TAP	41	0	4
TAP	41	32	4
TAP	41	48	3
TAP	41	80	3
TAP	41	96	2
TAP	41	128	2
STR	41	144	1
SI_	41	144	1	96	48	4
STR	41	192	4
SCL	41	192	4	96	64	0
STR	41	240	1
SCL	41	240	1	96	48	6
HLD	41	288	5	80
TAP	42	0	5
TAP	42	48	4
TAP	42	48	6
STR	42	96	3
SCL	42	96	3	96	144	4
TAP	42	96	5
TAP	42	144	2
TAP	42	144	4
XHO	42	192	1	192
XTP	42	192	3
TAP	43	0	5
TAP	43	48	2
TAP	43	48	6
TAP	43	96	3
HLD	43	96	7	48
TAP	43	144	0
TAP	43	176	1
TAP	43	176	6
TAP	43	224	4
TAP	43	240	3
TAP	43	288	1
TAP	43	288	3
TAP	43	336	4
TAP	43	336	6
TAP	44	0	1
TAP	44	16	3
TAP	44	32	2
TAP	44	48	6
TAP	44	64	4
TAP	44	80	5
TAP	44	96	0
TAP	44	112	7
STR	44	128	1
SI_	44	128	1	96	32	4
STR	44	128	6
SI_	44	128	6	96	32	3
TAP	44	144	2
TAP	44	144	5
TAP	44	176	2
TAP	44	176	5
BRK	44	224	1
BRK	44	224	6
TAP	44	288	7
TAP	44	304	0
TAP	44	320	7
TAP	44	336	0
TAP	45	0	2
TAP	45	16	3
TAP	45	32	2
TAP	45	48	3
TAP	45	96	6
TAP	45	112	4
TAP	45	128	5
TAP	45	144	3
TAP	45	160	4
TAP	45	176	3
TAP	45	192	5
TAP	45	224	4
TAP	45	224	6
TAP	45	272	0
TAP	45	288	1
TAP	45	304	2
TAP	45	320	3
TAP	45	336	4
TAP	45	352	5
TAP	45	368	6
TAP	46	0	2
TAP	46	16	3
TAP	46	32	4
TAP	46	48	5
TAP	46	64	6
TAP	46	80	7
TAP	46	96	1
TAP	46	112	0
TAP	46	128	1
TAP	46	144	0
TAP	46	192	2
TAP	46	192	7
TAP	46	224	0
TAP	46	224	5
TAP	46	272	3
TAP	46	272	4
BRK	46	288	2
BRK	46	288	5
XTP	46	336	0
XTP	46	336	7
TAP	47	0	5
TAP	47	16	4
TAP	47	32	5
TAP	47	48	4
TAP	47	96	1
TAP	47	112	3
TAP	47	128	2
TAP	47	144	4
TAP	47	160	3
TAP	47	176	4
TAP	47	192	2
TAP	47	224	1
TAP	47	224	3
TAP	47	272	4
HLD	47	272	6	48
TAP	47	320	5
TAP	47	352	4
TAP	47	352	6
TAP	48	0	3
TAP	48	0	5
TAP	48	32	2
TAP	48	32	4
TAP	48	64	1
TAP	48	64	3
TAP	48	96	0
TAP	48	96	7
TAP	48	144	2
TAP	48	144	5
TAP	48	160	3
TAP	48	176	4
TAP	48	192	2
TAP	48	192	5
BRK	48	240	0
BRK	48	240	7
TAP	48	288	3
TAP	48	304	4
TAP	48	320	3
TAP	48	336	6
TAP	48	352	5
TAP	48	368	6
TAP	49	0	4
TAP	49	16	5
TAP	49	32	4
TAP	49	48	6
TAP	49	64	5
TAP	49	80	6
TAP	49	96	4
TAP	49	112	5
TAP	49	128	3
TAP	49	144	4
TAP	49	160	2
TAP	49	176	3
TAP	49	192	1
TAP	49	208	0
TAP	49	224	1
BRK	49	240	2
BRK	49	240	7
TAP	49	288	4
TAP	49	304	3
TAP	49	320	4
TAP	49	336	1
TAP	49	352	2
TAP	49	368	1
TAP	50	0	3
TAP	50	16	2
TAP	50	32	3
TAP	50	48	1
TAP	50	64	2
TAP	50	80	1
TAP	50	96	3
TAP	50	128	2
TAP	50	128	4
TAP	50	160	3
TAP	50	160	5
TAP	50	192	4
TAP	50	192	6
BRK	50	240	0
BRK	50	240	7
TAP	50	288	3
TAP	50	288	4
XST	50	336	1
SCR	50	336	1	96	48	4
XTP	50	336	6
TTP	51	0	2	B	0	M1
TTP	51	0	3	B	0	M1
TAP	51	48	1
STR	51	48	6
SI_	51	48	6	96	48	2
TTP	51	96	0	E	0	M1
TTP	51	96	7	B	0	M1
STR	51	144	0
SI_	51	144	0	96	48	4
TAP	51	144	6
TTP	51	192	1	B	0	M1
TTP	51	192	1	E	0	M1
TAP	51	240	0
STR	51	240	7
SCL	51	240	7	96	48	4
TTP	51	288	5	B	0	M1
TTP	51	288	6	B	0	M1
STR	51	336	2
SCL	51	336	2	96	48	7
TAP	51	336	7
TTP	52	0	0	B	0	M1
TTP	52	0	1	B	0	M1
TAP	52	48	2
STR	52	48	4
SI_	52	48	4	96	48	0
TTP	52	96	6	B	0	M1
TTP	52	96	6	E	0	M1
TAP	52	144	3
TAP	52	144	4
TTP	52	192	2	B	0	M1
TTP	52	192	2	E	0	M1
BST	52	288	2
SXR	52	288	2	96	480	3
BST	52	288	5
SXL	52	288	5	96	480	4
TTP	52	296	3	B	0	M1
TTP	52	296	4	B	0	M1
TTP	52	296	4	E	0	M1
STR	54	288	2
SI_	54	288	2	96	32	0
TAP	54	288	3
TAP	54	320	3
TAP	54	352	3
TTP	55	0	3	B	0	M1
TTP	55	8	0	C	1	M1
TTP	55	16	7	B	0	M1
TAP	55	96	0
STR	55	96	7
SI_	55	96	7	96	32	5
TAP	55	128	0
TAP	55	160	0
TTP	55	192	0	B	0	M1
TTP	55	200	0	C	1	M1
TTP	55	208	4	B	0	M1
STR	55	288	4
SI_	55	288	4	96	32	2
TAP	55	288	5
TAP	55	320	5
TAP	55	352	5
TTP	56	0	5	B	0	M1
TTP	56	8	0	C	1	M1
TTP	56	16	1	B	0	M1
STR	56	96	1
SI_	56	96	1	96	32	7
TAP	56	96	2
TAP	56	128	2
TAP	56	160	2
TTP	56	192	2	B	0	M1
TTP	56	200	0	C	1	M1
TTP	56	208	6	B	0	M1
TAP	56	288	3
TAP	56	288	5
TAP	56	336	2
TAP	56	336	4
TAP	57	0	1
HLD	57	32	1	48
TAP	57	80	3
TAP	57	128	4
TAP	57	144	3
TAP	57	192	5
TAP	57	224	5
TAP	57	240	4
TAP	57	272	3
TAP	57	288	4
TAP	57	336	4
TAP	57	336	5
TAP	58	0	6
HLD	58	32	6	48
HLD	58	80	4	48
TAP	58	128	5
TAP	58	144	4
TAP	58	176	4
TAP	58	192	3
TAP	58	224	3
TAP	58	240	2
STR	58	288	0
SI_	58	288	0	96	32	5
TAP	58	288	1
TAP	58	336	6
STR	58	336	7
SI_	58	336	7	96	32	2
TAP	59	0	0
TAP	59	48	7
TAP	59	96	3
TAP	59	112	4
TAP	59	128	3
TAP	59	144	5
TAP	59	160	4
TAP	59	176	5
TAP	59	192	2
TAP	59	208	3
TAP	59	224	2
TAP	59	240	6
TAP	59	256	4
TAP	59	272	5
TAP	59	288	1
TAP	59	304	3
TAP	59	320	2
TAP	59	336	6
TAP	59	352	5
TAP	59	368	6
TAP	60	0	1
TAP	60	16	2
TAP	60	32	1
TAP	60	48	7
TAP	60	64	0
TAP	60	80	7
STR	60	96	0
SF_	60	96	0	96	32	4
TAP	60	144	2
TAP	60	144	6
BRK	60	192	0
TTP	60	198	0	B	0	M1
TTP	60	204	0	C	1	M1
TTP	60	210	4	B	0	M1
XTP	60	288	2
XST	60	288	6
SUL	60	288	6	96	32	2
TAP	60	320	5
TAP	60	336	4
TAP	60	368	4
TAP	61	0	6
TAP	61	32	1
TAP	61	48	0
TAP	61	80	7
STR	61	96	0
SV_	61	96	0	96	32	5
TAP	61	128	2
TAP	61	144	3
TAP	61	176	3
TAP	61	192	0
TAP	61	224	6
TAP	61	240	7
TAP	61	272	6
TAP	61	288	4
TAP	61	320	5
TAP	61	336	3
TAP	61	368	4
TAP	62	0	2
TAP	62	32	3
TAP	62	48	1
STR	62	80	2
SXR	62	80	2	96	48	0
STR	62	80	6
SXR	62	80	6	96	48	4
TAP	62	128	1
TAP	62	128	5
BRK	62	176	2
BRK	62	176	6
XST	62	288	1
SUR	62	288	1	96	32	5
XTP	62	288	5
TAP	62	320	2
TAP	62	336	3
TAP	62	368	3
TAP	63	0	1
TAP	63	32	6
TAP	63	48	7
TAP	63	80	0
STR	63	96	7
SV_	63	96	7	96	32	2
TAP	63	128	5
TAP	63	144	4
TAP	63	176	4
TAP	63	192	7
TAP	63	224	1
TAP	63	240	0
TAP	63	272	1
TAP	63	288	3
TAP	63	320	2
TAP	63	336	4
TAP	63	368	3
TAP	64	0	5
TAP	64	32	4
TAP	64	48	6
STR	64	80	1
SXL	64	80	1	96	48	3
STR	64	80	5
SXL	64	80	5	96	48	7
TAP	64	128	2
TAP	64	128	6
BRK	64	176	1
BRK	64	176	5
TAP	64	288	0
HLD	64	288	7	32
TAP	64	320	4
TAP	64	336	5
TAP	64	368	3
TAP	65	0	4
TAP	65	32	2
TAP	65	48	3
TAP	65	80	0
TAP	65	80	7
HLD	65	96	0	32
TAP	65	96	7
TAP	65	128	3
TAP	65	144	2
TAP	65	176	4
TAP	65	192	3
TAP	65	224	5
TAP	65	240	4
TAP	65	272	6
STR	65	288	4
SI_	65	288	4	96	48	0
STR	65	336	0
SI_	65	336	0	96	48	4
TTP	66	0	6	B	0	M1
TTP	66	0	6	E	0	M1
TTP	66	48	2	B	0	M1
TTP	66	48	2	E	0	M1
TAP	66	96	7
TAP	66	128	7
BRK	66	176	0
BRK	66	176	6
TAP	66	224	2
TAP	66	240	3
TAP	66	272	5
XTP	66	288	4
TAP	66	336	0
TAP	66	336	7
STR	67	0	2
SI_	67	0	2	96	48	7
TAP	67	0	5
TAP	67	32	0
TAP	67	48	3
TAP	67	80	3
XTP	67	96	2
TAP	67	144	4
TAP	67	192	2
STR	67	192	5
SI_	67	192	5	96	48	0
TAP	67	224	7
TAP	67	240	4
TAP	67	272	4
XST	67	288	5
SCL	67	288	5	96	48	2
TAP	67	336	3
XTP	68	0	1
STR	68	0	5
SV_	68	0	5	96	48	0
TTP	68	48	6	B	0	M1
TTP	68	48	7	B	0	M1
XTP	68	96	2
XTP	68	96	5
TTP	68	144	0	C	1	M1
TTP	68	144	3	B	0	M1
TTP	68	144	4	B	0	M1
BRK	68	192	1
BRK	68	192	6
TAP	68	288	2
TAP	68	288	4
TAP	68	336	2
TAP	68	368	3
TAP	69	0	2
TAP	69	48	2
TTP	69	48	4	E	0	M1
TAP	69	96	2
TTP	69	96	5	E	0	M1
TAP	69	144	2
TTP	69	144	6	E	0	M1
TAP	69	192	3
TAP	69	192	5
TAP	69	240	5
TAP	69	272	4
TAP	69	288	5
TTP	69	336	4	E	0	M1
TAP	69	336	5
TTP	70	0	3	E	0	M1
TAP	70	0	5
TTP	70	48	2	E	0	M1
TAP	70	48	5
TAP	70	96	1
TAP	70	96	4
TAP	70	144	1
TAP	70	176	2
TAP	70	192	1
TAP	70	240	1
TTP	70	240	2	B	0	M1
TTP	70	240	3	E	0	M1
TAP	70	288	1
TTP	70	288	5	B	0	M1
TTP	70	288	5	E	0	M1
TAP	70	336	3
TAP	70	336	6
TAP	71	0	6
TAP	71	32	5
TAP	71	48	6
TTP	71	96	5	B	0	M1
TTP	71	96	5	E	0	M1
TAP	71	96	6
TTP	71	144	2	B	0	M1
TTP	71	144	3	E	0	M1
TAP	71	144	6
TAP	71	192	0
TAP	71	192	1
TAP	71	240	2
STR	71	240	3
SI_	71	240	3	96	48	6
TAP	71	272	1
STR	71	288	0
SI_	71	288	0	96	48	4
TAP	71	336	2
TAP	71	336	3
TAP	72	0	0
TAP	72	48	7
STR	72	96	6
SI_	72	96	6	96	48	2
TAP	72	96	7
TAP	72	128	1
STR	72	144	0
SCR	72	144	0	96	48	3
TAP	72	192	6
TAP	72	192	7
TAP	72	240	0
TAP	72	288	6
STR	72	336	4
SI_	72	336	4	96	48	1
TAP	72	336	5
TAP	72	368	6
STR	73	0	7
SI_	73	0	7	96	48	3
TAP	73	48	4
TAP	73	48	5
TAP	73	96	7
TAP	73	144	0
TAP	73	192	0
STR	73	192	1
SI_	73	192	1	96	48	5
TAP	73	224	6
STR	73	240	7
SCL	73	240	7	96	48	4
TAP	73	288	0
TAP	73	288	1
TAP	73	336	7
TTP	74	0	0	C	1	M1
XTP	74	48	0
XTP	74	48	7
TAP	74	72	0
TAP	74	72	7
XTP	74	120	4
XTP	74	120	5
TAP	74	144	4
TAP	74	144	6
XTP	74	192	2
XTP	74	192	3
TAP	74	216	1
TAP	74	216	3
XTP	74	264	0
XTP	74	264	7
TAP	74	288	0
TAP	74	288	7
TAP	74	336	1
TAP	74	352	3
TAP	74	368	2
TAP	75	0	6
TAP	75	16	4
TAP	75	32	5
TAP	75	48	2
TAP	75	64	4
TAP	75	80	3
TAP	75	96	5
TAP	75	112	3
TAP	75	128	4
TAP	75	144	1
TAP	75	150	2
TAP	75	156	3
TAP	75	162	4
TAP	75	168	5
TAP	75	174	6
TAP	75	180	7
TAP	75	186	0
XTP	75	192	1
XTP	75	192	4
TAP	75	216	1
TAP	75	216	4
XTP	75	264	3
XTP	75	264	6
TAP	75	288	3
TAP	75	288	6
XTP	75	336	0
XTP	75	336	4
TAP	75	360	0
TAP	75	360	4
XTP	76	24	3
XTP	76	24	7
TAP	76	48	2
TAP	76	48	6
TAP	76	72	1
TAP	76	72	5
TAP	76	96	0
STR	76	96	4
SI_	76	96	4	96	48	6
TAP	76	144	1
STR	76	144	3
SI_	76	144	3	96	48	7
TAP	76	192	2
STR	76	192	4
SI_	76	192	4	96	48	0
STR	76	240	3
SI_	76	240	3	96	48	1
TAP	76	288	4
TAP	76	336	3
TAP	77	0	6
TAP	77	24	6
TAP	77	48	3
TAP	77	48	7
TAP	77	72	3
TAP	77	72	7
TAP	77	96	0
TAP	77	96	4
TAP	77	120	0
TAP	77	120	4
TAP	77	144	1
TTP	77	144	5	E	0	M1
TAP	77	168	0
TTP	77	168	4	E	0	M1
TTP	77	192	3	E	0	M1
STR	77	192	7
SCL	77	192	7	96	84	0
TTP	77	216	2	E	0	M1
TAP	77	216	6
TTP	77	240	1	E	0	M1
TAP	77	240	5
TTP	77	264	0	E	0	M1
TAP	77	264	4
TTP	77	288	7	E	0	M1
TTP	77	300	6	E	0	M1
TTP	77	312	5	E	0	M1
TTP	77	324	4	E	0	M1
TTP	77	336	3	E	0	M1
TTP	77	348	2	E	0	M1
TTP	77	360	1	E	0	M1
TTP	77	372	0	E	0	M1
TAP	78	0	7
TAP	78	8	6
TAP	78	16	5
TAP	78	24	4
TAP	78	32	3
TAP	78	40	2
TAP	78	48	1
TAP	78	56	0
TAP	78	64	7
TAP	78	72	6
TAP	78	80	5
TAP	78	88	4
TAP	78	96	3
STR	78	176	0
SI_	78	176	0	96	32	4
STR	78	176	7
SI_	78	176	7	96	32	3
TAP	78	192	1
TAP	78	192	6
TAP	78	224	3
TAP	78	224	4
TAP	78	240	2
TAP	78	240	5
BRK	78	272	0
BRK	78	272	7
TTP	78	280	0	C	1	M1

T_REC_TAP	753
T_REC_BRK	35
T_REC_XTP	51
T_REC_HLD	28
T_REC_XHO	9
T_REC_STR	80
T_REC_BST	2
T_REC_XST	11
T_REC_TTP	131
T_REC_THO	0
T_REC_SLD	94
T_REC_ALL	1194
T_NUM_TAP	1026
T_NUM_BRK	37
T_NUM_HLD	37
T_NUM_SLD	94
T_NUM_ALL	1194
T_JUDGE_TAP	1063
T_JUDGE_HLD	60
T_JUDGE_SLD	94
T_JUDGE_ALL	1217
TTM_EACHPAIRS	175
TTM_SCR_TAP	513000
TTM_SCR_BRK	96200
TTM_SCR_HLD	37000
TTM_SCR_SLD	141000
TTM_SCR_ALL	787200
TTM_SCR_S	760000
TTM_SCR_SS	783500
TTM_RAT_ACV	10047

