VERSION	0.00.00	1.03.00
FES_MODE	0
BPM_DEF	125.000	125.000	125.000	125.000
MET_DEF	4	4
RESOLUTION	384
CLK_DEF	384
COMPATIBLE_CODE	MA2

BPM	0	0	125.000
MET	0	0	8	4
MET	8	0	4	4
MET	17	0	4	1
MET	17	96	8	4
MET	18	96	4	4
MET	19	96	8	4
MET	20	96	4	4
MET	21	96	8	4
MET	22	96	4	4
MET	23	96	8	4
MET	24	96	4	4
MET	25	96	8	6
MET	44	288	8	4
MET	60	288	4	4
MET	68	288	8	6
MET	70	96	8	5
MET	73	144	8	6
MET	74	48	8	5
MET	74	288	8	6
MET	77	288	8	7

STR	1	0	7
SCL	1	0	7	96	288	4
STR	2	0	0
SCR	2	0	0	96	288	3
STR	3	0	7
SCL	3	0	7	96	288	4
STR	4	0	0
SCR	4	0	0	96	288	3
STR	5	0	7
SCL	5	0	7	96	288	4
TAP	5	96	3
TAP	5	192	2
TAP	5	288	1
STR	6	0	0
SCR	6	0	0	96	288	3
TAP	6	96	4
TAP	6	192	5
TAP	6	288	6
STR	7	0	7
SCL	7	0	7	96	288	4
TAP	7	96	3
TAP	7	192	2
TAP	7	288	1
STR	8	0	0
SI_	8	0	0	96	48	4
TAP	8	48	0
STR	8	96	7
SI_	8	96	7	96	48	3
TAP	8	144	7
TAP	8	192	0
TAP	8	240	0
BRK	8	288	1
BRK	8	288	6
TAP	8	336	2
STR	9	0	5
SI_	9	0	5	96	48	2
TAP	9	48	5
TAP	9	96	0
TAP	9	144	0
STR	9	192	1
SI_	9	192	1	96	48	6
TAP	9	240	1
TAP	9	288	4
TAP	9	336	4
STR	10	0	5
SI_	10	0	5	96	48	0
TAP	10	48	5
STR	10	96	1
SI_	10	96	1	96	48	4
TAP	10	144	1
TAP	10	192	7
TAP	10	240	7
TAP	10	288	4
TAP	10	288	7
TAP	10	336	3
STR	11	0	2
SI_	11	0	2	96	48	5
TAP	11	48	2
TAP	11	96	7
TAP	11	144	7
STR	11	192	6
SI_	11	192	6	96	48	1
TAP	11	240	6
TAP	11	288	3
TAP	11	336	3
STR	12	0	2
SI_	12	0	2	96	48	7
TAP	12	48	2
STR	12	96	6
SI_	12	96	6	96	48	3
TAP	12	144	6
TAP	12	192	0
TAP	12	240	0
TAP	12	288	0
TAP	12	288	3
TAP	12	336	4
STR	13	0	5
SI_	13	0	5	96	48	2
TAP	13	48	5
STR	13	96	1
SI_	13	96	1	96	48	6
TAP	13	144	1
TAP	13	192	5
TAP	13	240	5
TAP	13	288	4
TAP	13	288	5
TAP	13	336	3
STR	14	0	2
SI_	14	0	2	96	48	5
TAP	14	48	2
STR	14	96	6
SI_	14	96	6	96	48	1
TAP	14	144	6
TAP	14	192	2
TAP	14	240	2
TAP	14	288	2
TAP	14	288	3
TAP	14	336	4
TAP	15	0	4
TAP	15	0	5
TAP	15	48	6
TAP	15	96	2
TAP	15	96	3
TAP	15	144	1
TAP	15	192	4
TAP	15	192	5
TAP	15	240	6
TAP	15	288	2
TAP	15	288	3
TAP	15	336	1
TAP	16	0	4
TAP	16	0	6
TAP	16	48	7
TAP	16	96	1
TAP	16	96	3
TAP	16	144	0
TAP	16	192	0
TAP	16	192	7
TAP	16	240	1
TAP	16	240	6
BRK	16	288	2
BRK	16	288	5
TTP	17	0	0	C	0	M1
TAP	17	96	0
TAP	17	128	0
TAP	17	144	7
TAP	17	176	7
TAP	17	192	6
TAP	17	224	6
TAP	17	240	5
TAP	17	272	5
TAP	17	288	4
TAP	17	320	4
TAP	17	336	3
TAP	17	368	3
TAP	18	0	2
TAP	18	32	2
TAP	18	48	1
TAP	18	80	1
STR	18	96	0
SI_	18	96	0	96	48	3
STR	18	192	4
SI_	18	192	4	96	48	7
TAP	18	288	0
TAP	18	336	0
TAP	19	0	0
TAP	19	0	7
TAP	19	96	7
TAP	19	128	7
TAP	19	144	0
TAP	19	176	0
TAP	19	192	1
TAP	19	224	1
TAP	19	240	2
TAP	19	272	2
TAP	19	288	3
TAP	19	320	3
TAP	19	336	4
TAP	19	368	4
TAP	20	0	5
TAP	20	32	5
TAP	20	48	6
TAP	20	80	6
STR	20	96	7
SI_	20	96	7	96	48	4
STR	20	192	3
SI_	20	192	3	96	48	0
TAP	20	288	7
TAP	20	336	7
TAP	21	0	0
TAP	21	0	7
TAP	21	96	4
TAP	21	128	4
TAP	21	144	3
TAP	21	176	3
TAP	21	192	2
TAP	21	224	2
TAP	21	240	1
TAP	21	272	1
TAP	21	288	0
TAP	21	320	0
TAP	21	336	7
TAP	21	368	7
TAP	22	0	6
TAP	22	32	6
TAP	22	48	5
TAP	22	80	5
STR	22	96	4
SV_	22	96	4	96	48	7
STR	22	192	0
SCR	22	192	0	96	48	3
TAP	22	288	4
TAP	22	336	4
TAP	23	0	3
TAP	23	0	4
TAP	23	96	3
TAP	23	128	3
TAP	23	144	4
TAP	23	176	4
TAP	23	192	5
TAP	23	224	5
TAP	23	240	6
TAP	23	272	6
TAP	23	288	7
TAP	23	320	7
TAP	23	336	0
TAP	23	368	0
TAP	24	0	1
TAP	24	32	1
TAP	24	48	2
TAP	24	80	2
STR	24	96	3
SV_	24	96	3	96	48	0
STR	24	192	7
SCL	24	192	7	96	48	4
TAP	24	288	3
TAP	24	336	3
TAP	25	0	2
TAP	25	0	4
TAP	25	96	3
TAP	25	96	6
TAP	25	144	2
TAP	25	144	5
TAP	25	192	1
HLD	25	192	4	48
HLD	25	240	7	48
HLD	25	288	2	48
TAP	25	336	3
TAP	26	0	1
TAP	26	0	4
TAP	26	48	2
TAP	26	48	5
HLD	26	96	3	48
TAP	26	96	6
HLD	26	144	0	48
HLD	26	192	5	48
TAP	26	240	4
TAP	26	288	3
TAP	26	288	6
TAP	26	336	2
TAP	26	336	5
TAP	27	0	1
HLD	27	0	4	48
HLD	27	48	7	48
HLD	27	96	2	48
TAP	27	144	3
TAP	27	192	1
TAP	27	192	4
TAP	27	240	2
TAP	27	240	5
HLD	27	288	3	48
TAP	27	288	6
HLD	27	336	0	48
HLD	28	0	5	48
TAP	28	48	4
TAP	28	96	2
TAP	28	120	3
TAP	28	144	2
TAP	28	168	5
TAP	28	192	4
TAP	28	216	5
TAP	28	240	2
TAP	28	264	3
TAP	28	288	1
TAP	28	312	5
TAP	28	336	4
TAP	28	360	6
TAP	29	0	1
TAP	29	24	3
TAP	29	48	2
TAP	29	72	6
TAP	29	96	4
TAP	29	120	5
TAP	29	168	4
TAP	29	168	6
TAP	29	216	1
TAP	29	216	3
TAP	29	264	0
HLD	29	288	0	48
HLD	29	336	2	48
HLD	30	0	3	48
HLD	30	48	4	48
HLD	30	96	5	48
HLD	30	144	7	48
BRK	30	192	0
TAP	30	336	3
TAP	30	336	4
TAP	31	0	5
TAP	31	48	3
STR	31	96	2
SCR	31	96	2	96	48	5
TAP	31	144	7
TAP	31	192	7
TAP	31	240	6
TAP	31	288	5
TAP	31	336	3
STR	32	0	2
SCR	32	0	2	96	48	5
TAP	32	48	6
TAP	32	96	6
TAP	32	144	7
TAP	32	192	5
TAP	32	240	3
STR	32	288	2
SCR	32	288	2	96	48	5
TAP	32	336	7
TAP	33	0	7
TAP	33	48	6
TAP	33	96	5
TAP	33	144	3
HLD	33	192	2	48
HLD	33	240	0	48
HLD	33	288	7	48
HLD	33	336	5	48
TAP	34	0	2
TAP	34	48	4
STR	34	96	5
SCL	34	96	5	96	48	2
TAP	34	144	0
TAP	34	192	0
TAP	34	240	1
TAP	34	288	2
TAP	34	336	4
STR	35	0	5
SCL	35	0	5	96	48	2
TAP	35	48	1
TAP	35	96	1
TAP	35	144	0
TAP	35	192	2
TAP	35	240	4
STR	35	288	5
SCL	35	288	5	96	48	2
TAP	35	336	0
TAP	36	0	0
TAP	36	48	1
TAP	36	96	2
TAP	36	144	4
TAP	36	192	3
TAP	36	192	5
TAP	36	240	2
TAP	36	240	4
TAP	36	288	0
TAP	36	288	7
TAP	36	336	1
TAP	36	336	6
TAP	37	48	3
STR	37	96	1
SCL	37	96	1	96	48	6
TAP	37	144	4
TAP	37	192	4
TAP	37	240	5
TAP	37	288	6
TAP	37	336	0
STR	38	0	1
SCL	38	0	1	96	48	6
TAP	38	48	5
TAP	38	96	5
TAP	38	144	4
TAP	38	192	6
TAP	38	240	0
STR	38	288	1
SCL	38	288	1	96	48	6
TAP	38	336	4
TAP	39	0	4
TAP	39	48	5
TAP	39	96	6
TAP	39	144	0
HLD	39	192	1	48
HLD	39	240	3	48
HLD	39	288	4	48
HLD	39	336	6	48
TAP	40	0	1
TAP	40	48	7
STR	40	96	6
SCR	40	96	6	96	48	1
TAP	40	144	3
TAP	40	192	3
TAP	40	240	2
TAP	40	288	1
TAP	40	336	7
STR	41	0	6
SCR	41	0	6	96	48	1
TAP	41	48	2
TAP	41	96	2
TAP	41	144	3
TAP	41	192	1
TAP	41	240	7
STR	41	288	6
SCR	41	288	6	96	48	1
TAP	41	336	3
TAP	42	0	3
TAP	42	48	2
TAP	42	96	1
TAP	42	144	7
HLD	42	192	6	48
HLD	42	240	4	48
HLD	42	288	3	48
HLD	42	336	1	48
HLD	43	0	7	48
TAP	43	48	0
HLD	43	96	1	48
HLD	43	144	3	48
HLD	43	192	4	48
HLD	43	240	6	48
HLD	43	288	0	48
TAP	43	336	7
TTP	44	0	1	E	0	M1
TTP	44	0	7	E	0	M1
TTP	44	48	2	B	0	M1
TTP	44	48	5	B	0	M1
TTP	44	96	0	B	0	M1
TTP	44	96	7	B	0	M1
THO	44	144	0	72	C	1	M1
HLD	44	288	7	96
TAP	44	336	6
HLD	45	0	0	96
TAP	45	48	1
STR	45	96	6
SI_	45	96	6	96	48	3
STR	45	144	7
SI_	45	144	7	96	48	2
TAP	45	288	3
TAP	45	336	2
TAP	45	336	4
TAP	46	0	1
TAP	46	0	5
TAP	46	48	0
TAP	46	48	6
STR	46	96	7
SCL	46	96	7	96	48	4
STR	46	144	0
SCR	46	144	0	96	48	3
BRK	46	288	7
TAP	46	336	0
HLD	47	0	7	96
TAP	47	48	6
STR	47	96	1
SI_	47	96	1	96	48	4
STR	47	144	0
SI_	47	144	0	96	48	5
TAP	47	288	4
TAP	47	336	3
TAP	47	336	5
TAP	48	0	2
TAP	48	0	6
TAP	48	48	1
TAP	48	48	7
STR	48	96	0
SCR	48	96	0	96	48	3
STR	48	144	7
SCL	48	144	7	96	48	4
TAP	48	288	1
TAP	48	320	1
TAP	48	336	3
TAP	48	368	3
TAP	49	0	4
TAP	49	32	4
TAP	49	48	6
TAP	49	80	6
TAP	49	96	0
TAP	49	128	0
TAP	49	144	7
TAP	49	176	7
TAP	49	192	0
TAP	49	224	0
TAP	49	240	6
TAP	49	272	6
TAP	49	288	4
TAP	49	320	4
TAP	49	336	3
TAP	49	368	3
TAP	50	0	1
TAP	50	32	1
TAP	50	48	7
TAP	50	80	7
XTP	50	96	0
XTP	50	128	1
XTP	50	160	2
XTP	50	192	3
TAP	50	240	2
TAP	50	240	4
TAP	50	288	3
TAP	50	288	5
BRK	50	336	0
BRK	50	336	6
TAP	51	0	2
TAP	51	0	4
BRK	51	48	1
BRK	51	48	7
TAP	51	96	4
TAP	51	96	6
BRK	51	144	6
BRK	51	144	7
TAP	51	192	1
TAP	51	192	3
BRK	51	240	0
BRK	51	240	1
TAP	51	288	4
TAP	51	288	5
BRK	51	336	6
BRK	51	336	7
TAP	52	0	2
TAP	52	0	3
BRK	52	48	0
BRK	52	48	1
TAP	52	96	3
TAP	52	96	4
TAP	52	144	1
TAP	52	144	6
BST	52	192	0
SCR	52	192	0	96	384	7
BRK	52	192	7
TTP	52	288	0	C	1	M1
TTP	54	288	7	B	0	M1
TTP	54	288	7	E	0	M1
TTP	54	320	4	B	0	M1
TTP	54	320	5	E	0	M1
TTP	54	352	6	B	0	M1
TTP	54	352	6	E	0	M1
TTP	55	0	0	C	0	M1
TTP	55	0	5	B	0	M1
TTP	55	96	0	B	0	M1
TTP	55	96	1	E	0	M1
TTP	55	128	3	B	0	M1
TTP	55	128	3	E	0	M1
TTP	55	160	1	B	0	M1
TTP	55	160	2	E	0	M1
TTP	55	192	0	C	0	M1
TTP	55	192	2	B	0	M1
TTP	55	288	7	B	0	M1
TTP	55	288	7	E	0	M1
TTP	55	320	4	B	0	M1
TTP	55	320	5	E	0	M1
TTP	55	352	6	B	0	M1
TTP	55	352	6	E	0	M1
TTP	56	0	0	C	1	M1
TTP	56	0	5	B	0	M1
TTP	56	96	0	B	0	M1
TTP	56	96	1	E	0	M1
TTP	56	128	3	B	0	M1
TTP	56	128	3	E	0	M1
TTP	56	160	1	B	0	M1
TTP	56	160	2	E	0	M1
TTP	56	192	0	C	1	M1
TTP	56	192	2	B	0	M1
HLD	56	288	5	96
TAP	56	336	7
HLD	57	0	4	96
TAP	57	48	7
HLD	57	96	5	96
TAP	57	144	7
HLD	57	192	3	96
TAP	57	240	7
HLD	57	288	4	96
TAP	57	336	0
HLD	58	0	2	96
TAP	58	48	0
HLD	58	96	3	96
TAP	58	144	0
HLD	58	192	2	96
TAP	58	240	0
TAP	58	288	3
TAP	58	336	4
TAP	58	336	5
TAP	59	0	6
TAP	59	0	7
TAP	59	48	0
TAP	59	48	1
TAP	59	96	1
TAP	59	96	3
TAP	59	144	3
TAP	59	144	4
TAP	59	192	4
TAP	59	192	6
TAP	59	240	0
TAP	59	240	7
TAP	59	288	1
TAP	59	288	2
TAP	59	336	3
TAP	59	336	4
TAP	60	0	5
TAP	60	0	6
TAP	60	48	0
TAP	60	48	7
XTP	60	96	1
XTP	60	96	6
TAP	60	144	3
TAP	60	144	4
BRK	60	192	7
TAP	60	224	2
TAP	60	240	3
TAP	60	272	3
TAP	60	288	1
TAP	60	320	1
TAP	60	336	7
TAP	60	352	0
TAP	60	368	7
TAP	61	0	0
TAP	61	32	5
TAP	61	48	4
TAP	61	80	4
TAP	61	96	6
TAP	61	128	6
TAP	61	144	0
TAP	61	160	7
TAP	61	176	0
TAP	61	192	7
TAP	61	224	2
TAP	61	240	3
TAP	61	272	3
TAP	61	288	1
TAP	61	320	1
TAP	61	336	7
TAP	61	368	7
TAP	62	0	0
TAP	62	32	0
TAP	62	48	3
BRK	62	80	2
BRK	62	80	4
BRK	62	128	3
BRK	62	128	6
BRK	62	176	0
BRK	62	176	4
TAP	62	224	5
TAP	62	240	4
TAP	62	272	4
TAP	62	288	6
TAP	62	320	6
TAP	62	336	0
TAP	62	352	7
TAP	62	368	0
TAP	63	0	7
TAP	63	32	2
TAP	63	48	3
TAP	63	80	3
TAP	63	96	1
TAP	63	128	1
TAP	63	144	7
TAP	63	160	0
TAP	63	176	7
TAP	63	192	0
TAP	63	224	5
TAP	63	240	4
TAP	63	272	4
TAP	63	288	6
TAP	63	320	6
TAP	63	336	0
TAP	63	368	0
TAP	64	0	7
TAP	64	32	7
TAP	64	48	4
BRK	64	80	3
BRK	64	80	5
BRK	64	128	1
BRK	64	128	4
BRK	64	176	3
BRK	64	176	7
TAP	64	224	2
TAP	64	240	3
TAP	64	272	3
HLD	64	288	1	80
TAP	64	336	2
TAP	64	368	2
TAP	65	32	5
TAP	65	48	4
TAP	65	80	4
HLD	65	96	6	80
TAP	65	144	5
TAP	65	176	5
TAP	65	224	2
TAP	65	240	3
TAP	65	272	3
HLD	65	288	1	96
TAP	65	336	2
HLD	66	0	6	96
TAP	66	48	5
HLD	66	96	0	96
TAP	66	144	2
HLD	66	192	7	96
TAP	66	240	5
STR	66	288	2
SCR	66	288	2	96	48	5
TAP	66	336	6
TAP	67	0	7
TAP	67	48	6
STR	67	96	5
SCL	67	96	5	96	48	2
TAP	67	144	1
TAP	67	192	0
TAP	67	240	1
STR	67	288	2
SCR	67	288	2	96	48	5
TAP	67	336	2
STR	68	0	6
SCR	68	0	6	96	48	1
TAP	68	48	6
TAP	68	96	3
TAP	68	144	3
TAP	68	192	1
TAP	68	192	5
STR	68	288	3
SCL	68	288	3	96	96	0
TAP	68	288	4
TAP	68	336	6
TAP	69	0	7
TTP	69	48	0	E	0	M1
TTP	69	96	0	C	0	M1
TTP	69	144	4	E	0	M1
TAP	69	192	3
STR	69	192	4
SCR	69	192	4	96	96	7
TAP	69	240	1
TAP	69	288	0
TTP	69	336	4	E	0	M1
TTP	70	0	0	C	0	M1
TTP	70	48	0	E	0	M1
STR	70	96	0
SCR	70	96	0	96	96	3
TAP	70	96	7
TAP	70	144	5
TAP	70	192	4
TTP	70	240	4	E	0	M1
TTP	70	288	0	C	0	M1
TAP	70	336	0
STR	70	336	7
SCL	70	336	7	96	96	4
TAP	71	0	2
TAP	71	48	3
TTP	71	96	4	E	0	M1
TTP	71	144	0	C	0	M1
STR	71	192	1
SI_	71	192	1	96	48	5
TAP	71	240	7
TAP	71	264	7
TAP	71	336	6
TAP	72	0	4
TAP	72	0	7
STR	72	48	6
SI_	72	48	6	96	48	2
TAP	72	96	0
TAP	72	120	0
TAP	72	192	1
TAP	72	240	0
TAP	72	240	3
STR	72	288	1
SI_	72	288	1	96	48	5
TAP	72	336	7
TAP	72	360	7
TAP	73	48	6
TAP	73	96	4
TAP	73	96	7
STR	73	144	6
SI_	73	144	6	96	48	2
TAP	73	192	0
TAP	73	216	0
TAP	73	288	1
TAP	73	336	1
TAP	73	336	3
TAP	74	0	0
TAP	74	0	7
TAP	74	48	5
TAP	74	72	4
TAP	74	72	6
TAP	74	120	2
TAP	74	144	1
TAP	74	144	3
TAP	74	192	5
TAP	74	216	4
TAP	74	216	6
TAP	74	264	2
TAP	74	288	3
TAP	74	312	0
TAP	74	336	7
TAP	74	360	1
TAP	75	0	5
TAP	75	24	4
TAP	75	48	7
TAP	75	72	0
TAP	75	96	6
TAP	75	120	2
TAP	75	144	3
TAP	75	144	4
TAP	75	192	2
TAP	75	216	1
TAP	75	216	3
TAP	75	264	5
TAP	75	288	4
TAP	75	288	6
TAP	75	336	2
TAP	75	360	1
TAP	75	360	3
TAP	76	24	5
TAP	76	48	4
TAP	76	72	7
TAP	76	96	0
TAP	76	120	6
TAP	76	144	2
TAP	76	168	3
TAP	76	192	0
TAP	76	216	7
TAP	76	240	1
TAP	76	264	5
TAP	76	288	3
TAP	76	288	4
TAP	76	336	1
TAP	76	336	6
TAP	77	0	0
TAP	77	0	7
TAP	77	24	0
TAP	77	24	7
TAP	77	48	1
TAP	77	48	6
TAP	77	72	1
TAP	77	72	6
TAP	77	96	2
TAP	77	96	5
TAP	77	120	2
TAP	77	120	5
TAP	77	144	3
TAP	77	144	4
TAP	77	168	3
TAP	77	168	4
TAP	77	192	3
TAP	77	192	4
TAP	77	216	2
TAP	77	216	5
TAP	77	240	1
TAP	77	240	6
TAP	77	264	0
TAP	77	264	7
XTP	77	288	0
XTP	77	300	1
XTP	77	312	2
XTP	77	324	3
XTP	77	336	4
XTP	77	348	5
XTP	77	360	6
XTP	77	372	7
XTP	78	0	0
XTP	78	12	1
XTP	78	24	2
XTP	78	36	3
XTP	78	48	4
XTP	78	60	5
XTP	78	72	6
XTP	78	84	7
XHO	78	96	0	80
TAP	78	176	7
TAP	78	192	0
BRK	78	240	2
BRK	78	240	5
BRK	78	272	2
BRK	78	272	5

T_REC_TAP	566
T_REC_BRK	36
T_REC_XTP	22
T_REC_HLD	53
T_REC_XHO	1
T_REC_STR	61
T_REC_BST	1
T_REC_XST	0
T_REC_TTP	50
T_REC_THO	1
T_REC_SLD	62
T_REC_ALL	853
T_NUM_TAP	699
T_NUM_BRK	37
T_NUM_HLD	55
T_NUM_SLD	62
T_NUM_ALL	853
T_JUDGE_TAP	736
T_JUDGE_HLD	74
T_JUDGE_SLD	62
T_JUDGE_ALL	872
TTM_EACHPAIRS	111
TTM_SCR_TAP	349500
TTM_SCR_BRK	96200
TTM_SCR_HLD	55000
TTM_SCR_SLD	93000
TTM_SCR_ALL	593700
TTM_SCR_S	572300
TTM_SCR_SS	590000
TTM_RAT_ACV	10062

