VERSION	0.00.00	1.03.00
FES_MODE	0
BPM_DEF	125.000	125.000	125.000	125.000
MET_DEF	4	4
RESOLUTION	384
CLK_DEF	384
COMPATIBLE_CODE	MA2

BPM	0	0	125.000
MET	0	0	8	4
MET	8	0	4	4
MET	17	0	4	1
MET	17	96	8	4
MET	18	96	4	4
MET	19	96	8	4
MET	20	96	4	4
MET	21	96	8	4
MET	22	96	4	4
MET	23	96	8	4
MET	24	96	4	4
MET	25	96	8	6
MET	44	288	8	4
MET	60	288	4	4
MET	68	288	8	6
MET	70	96	8	5
MET	73	144	8	6
MET	74	48	8	5
MET	74	288	8	6
MET	77	288	8	7

THO	1	0	0	384	C	0	L1
THO	3	0	0	384	C	0	L1
TTP	3	0	1	B	0	L1
TTP	3	0	6	B	0	L1
TTP	5	0	3	E	0	L1
TTP	5	96	2	E	0	L1
TTP	5	192	1	E	0	L1
TTP	5	288	0	E	0	L1
TTP	6	0	7	E	0	L1
TTP	6	96	6	E	0	L1
TTP	6	192	3	E	0	L1
TTP	6	192	5	E	0	L1
TTP	7	0	2	B	0	L1
TTP	7	0	2	E	0	L1
TTP	7	0	3	B	0	L1
TTP	7	192	4	B	0	L1
TTP	7	192	5	B	0	L1
TTP	7	192	6	E	0	L1
TTP	8	0	0	B	0	L1
THO	8	0	0	192	C	1	L1
TTP	8	0	7	B	0	L1
XTP	9	0	0
TAP	9	48	0
TAP	9	96	0
TAP	9	192	1
TAP	9	192	3
TAP	9	288	2
TAP	9	288	4
TAP	10	0	5
TAP	10	48	5
TAP	10	96	5
TAP	10	192	4
TAP	10	192	6
TAP	10	288	4
TAP	10	288	6
TAP	11	0	7
TAP	11	48	7
TAP	11	96	7
TAP	11	192	4
TAP	11	192	6
TAP	11	288	3
TAP	11	288	5
TAP	12	0	2
TAP	12	48	2
TAP	12	96	2
BRK	12	192	1
BRK	12	192	3
HLD	13	0	5	96
HLD	13	96	4	96
TAP	13	192	5
TAP	13	288	3
TAP	13	288	6
HLD	14	0	2	96
HLD	14	96	3	96
TAP	14	192	2
TAP	14	288	1
TAP	14	288	4
TAP	15	0	5
TAP	15	48	5
XTP	15	96	5
TAP	15	192	3
TAP	15	240	3
XTP	15	288	3
TAP	16	0	3
TAP	16	0	4
TAP	16	96	2
TAP	16	96	5
BRK	16	192	1
BRK	16	192	6
HLD	17	0	3	96
HLD	17	0	4	96
TAP	17	192	2
TAP	17	288	2
TAP	17	288	3
TAP	18	0	1
HLD	18	96	1	96
HLD	18	96	4	96
XTP	18	288	1
XTP	18	288	4
TAP	19	96	3
TAP	19	96	4
TAP	19	192	5
TAP	19	288	4
TAP	19	288	5
TAP	20	0	6
HLD	20	96	0	96
HLD	20	96	6	96
TAP	20	288	7
TAP	20	336	7
BRK	21	0	7
TAP	21	96	4
TAP	21	96	6
TAP	21	192	5
TAP	21	288	3
TAP	21	288	4
TAP	22	0	2
TAP	22	0	3
HLD	22	96	1	96
HLD	22	96	4	96
TAP	22	288	0
TAP	22	336	0
TAP	23	0	0
TAP	23	96	1
TAP	23	96	7
TAP	23	192	2
TAP	23	288	0
TAP	23	288	6
TAP	24	0	5
TAP	24	96	4
TAP	24	96	5
TAP	24	192	3
TAP	24	192	4
TAP	24	288	2
TAP	24	288	3
XTP	25	0	1
XTP	25	0	4
XST	25	96	2
SI_	25	96	2	96	96	5
XST	26	0	6
SI_	26	0	6	96	96	3
XST	26	288	2
SI_	26	288	2	96	96	7
XST	27	192	6
SCL	27	192	6	96	96	3
XTP	28	96	1
XTP	28	168	2
XTP	28	240	3
XTP	28	312	4
XTP	29	0	5
XST	29	72	6
SCL	29	72	6	96	216	1
TTP	30	192	0	C	1	L1
TTP	30	192	1	B	0	L1
TTP	30	192	6	B	0	L1
XTP	31	96	0
XTP	31	96	7
TAP	31	192	6
TAP	31	240	6
TAP	31	336	5
TAP	32	0	4
TAP	32	0	5
TAP	32	96	3
TAP	32	96	4
TAP	32	144	3
TAP	32	144	4
TAP	32	240	2
TAP	32	288	2
TAP	33	0	1
TAP	33	48	1
TAP	33	144	0
TAP	33	192	0
TAP	33	192	7
TAP	33	288	1
TAP	33	288	6
XTP	33	336	1
XTP	33	336	6
TAP	34	96	3
TAP	34	96	4
TAP	34	192	5
TAP	34	240	4
TAP	34	240	5
TAP	34	336	6
TAP	35	0	6
TAP	35	0	7
TAP	35	96	0
TAP	35	96	7
TAP	35	144	0
TAP	35	144	7
TAP	35	240	1
TAP	35	240	6
TAP	35	288	1
TAP	35	288	6
TAP	36	0	2
TAP	36	48	2
TAP	36	48	3
TAP	36	144	5
TAP	36	192	4
TAP	36	192	5
TAP	36	288	3
TAP	36	288	4
BRK	36	336	3
BRK	36	336	4
TAP	37	96	4
TAP	37	96	5
TAP	37	192	6
TAP	37	240	4
TAP	37	240	6
TAP	37	336	7
TAP	38	0	0
TAP	38	0	7
TAP	38	96	1
TAP	38	96	6
XTP	38	144	1
XTP	38	144	6
TAP	38	240	2
TAP	38	288	2
TAP	38	288	3
TAP	39	0	1
TAP	39	48	1
TAP	39	48	3
TAP	39	144	0
STR	39	192	0
SI_	39	192	0	96	120	3
STR	39	192	7
SI_	39	192	7	96	120	4
XTP	40	96	2
XTP	40	96	5
TAP	40	192	1
TAP	40	240	1
TAP	40	240	3
TAP	40	336	4
TAP	41	0	3
TAP	41	0	4
TAP	41	96	1
TAP	41	96	6
XTP	41	144	1
XTP	41	144	6
TAP	41	288	0
TAP	41	288	1
TAP	42	0	2
TAP	42	0	3
TAP	42	48	2
TAP	42	48	3
TAP	42	144	4
TAP	42	144	5
HLD	42	192	4	144
HLD	42	192	5	144
STR	43	96	3
SI_	43	96	3	96	120	0
STR	43	96	4
SI_	43	96	4	96	120	7
XTP	44	0	1
XTP	44	0	6
TAP	44	96	2
TAP	44	96	5
BRK	44	144	2
BRK	44	144	5
TAP	44	288	5
TAP	44	336	5
TAP	45	0	4
TAP	45	48	4
HLD	45	96	5	96
TAP	45	192	4
TAP	45	288	2
TAP	45	336	2
TAP	46	0	3
TAP	46	48	3
HLD	46	96	2	96
TAP	46	192	3
XTP	46	288	6
TAP	46	336	6
TAP	47	0	7
TAP	47	96	1
TAP	47	144	1
TAP	47	192	0
TAP	47	288	7
TAP	47	336	7
TAP	48	0	0
TAP	48	48	0
TAP	48	96	7
BRK	48	192	1
BRK	48	192	6
TAP	48	288	0
TAP	48	336	1
TAP	49	0	2
TAP	49	48	3
TAP	49	96	4
TAP	49	144	5
TAP	49	192	6
TAP	49	240	7
TAP	49	288	7
TAP	49	336	6
TAP	50	0	5
TAP	50	48	4
TAP	50	96	3
TAP	50	144	2
XTP	50	192	0
XTP	50	192	1
HLD	50	288	7	96
HLD	51	0	6	96
HLD	51	96	5	96
TAP	51	192	4
TAP	51	288	3
TAP	51	336	3
TAP	52	0	4
TAP	52	48	4
TAP	52	96	2
TAP	52	96	5
XTP	52	192	0
XTP	52	192	7
BST	52	288	1
SCR	52	288	1	96	192	5
STR	53	288	6
SCL	53	288	6	96	192	2
HLD	54	288	1	96
XTP	55	0	0
HLD	55	96	6	96
XTP	55	192	7
HLD	55	288	2	96
XTP	56	0	0
TAP	56	96	0
TAP	56	96	7
XTP	56	192	1
XTP	56	192	6
TAP	56	288	2
TAP	56	336	2
TAP	57	0	3
TAP	57	96	5
TAP	57	144	5
TAP	57	192	4
TAP	57	288	1
TAP	57	336	1
TAP	58	0	3
TAP	58	96	6
TAP	58	144	6
TAP	58	192	4
TAP	58	288	2
TAP	58	288	3
TAP	59	0	1
TAP	59	0	4
TAP	59	96	4
TAP	59	96	5
TAP	59	192	3
TAP	59	192	6
HLD	59	288	3	96
HLD	59	288	4	96
TTP	60	96	0	C	1	L1
TTP	60	96	1	B	0	L1
TTP	60	96	6	B	0	L1
XTP	60	288	7
TAP	60	336	7
TAP	61	0	0
TAP	61	0	7
TAP	61	96	1
TAP	61	144	1
TAP	61	192	1
TAP	61	192	3
STR	61	288	4
SI_	61	288	4	96	96	7
STR	62	96	0
SI_	62	96	0	96	96	3
TAP	62	288	5
TAP	62	336	5
TAP	63	0	4
TAP	63	0	5
TAP	63	96	1
TAP	63	144	1
TAP	63	192	1
TAP	63	192	3
STR	63	288	0
SCR	63	288	0	96	96	3
STR	64	96	4
SCR	64	96	4	96	96	7
TAP	64	288	1
TAP	64	336	1
TAP	65	0	0
TAP	65	48	0
TAP	65	96	2
TAP	65	144	2
TAP	65	192	2
TAP	65	192	3
TAP	65	288	5
TAP	65	336	5
TAP	66	0	4
TAP	66	48	4
TAP	66	96	6
TAP	66	144	6
TAP	66	192	6
TAP	66	192	7
STR	66	288	0
SI_	66	288	0	96	96	4
STR	67	96	5
SI_	67	96	5	96	96	2
HLD	67	288	1	96
TAP	68	0	0
TAP	68	96	2
TAP	68	96	6
TAP	68	144	2
TAP	68	144	6
BRK	68	192	2
BRK	68	192	6
TAP	68	288	3
TAP	68	288	4
TAP	69	0	2
TAP	69	48	2
TAP	69	48	3
TAP	69	144	6
TAP	69	192	4
TAP	69	192	6
TAP	69	288	1
TAP	69	336	1
TAP	69	336	3
TAP	70	48	4
TAP	70	48	5
XHO	70	96	4	96
XHO	70	96	5	96
TAP	70	240	3
TAP	70	240	6
XHO	70	336	2	96
XHO	70	336	3	96
TAP	71	96	1
TAP	71	96	4
TAP	71	192	7
TAP	71	240	7
TAP	71	288	7
XTP	71	336	0
XTP	71	336	6
TAP	72	48	2
TAP	72	96	2
TAP	72	144	2
XTP	72	192	1
XTP	72	192	3
TAP	72	288	5
TAP	72	336	5
TAP	73	0	5
XTP	73	48	4
XTP	73	48	6
TAP	73	144	3
TAP	73	144	4
TAP	73	192	3
TAP	73	192	4
TAP	73	240	2
TAP	73	240	5
BRK	73	288	1
BRK	73	288	6
XTP	74	48	2
XTP	74	48	3
XTP	74	120	2
XTP	74	120	3
XTP	74	192	4
XTP	74	192	5
XTP	74	264	4
XTP	74	264	5
TAP	74	336	6
HLD	75	0	6	96
BRK	75	96	7
XTP	75	192	4
XTP	75	192	6
XTP	75	264	4
XTP	75	264	6
XTP	75	336	1
XTP	75	336	3
XTP	76	24	1
XTP	76	24	3
XTP	76	96	0
XTP	76	96	1
TAP	76	144	2
TAP	76	192	3
XTP	76	240	4
XTP	76	240	5
TAP	76	288	6
TAP	76	336	7
XTP	77	0	0
XTP	77	0	7
TAP	77	48	1
TAP	77	48	6
TAP	77	96	2
TAP	77	96	5
XTP	77	144	3
XTP	77	144	4
TAP	77	192	2
TAP	77	192	5
TAP	77	240	1
TAP	77	240	6
XHO	77	288	0	192
XHO	77	288	7	192
XTP	78	240	1
XTP	78	240	6
XTP	78	272	1
XTP	78	272	6

T_REC_TAP	292
T_REC_BRK	16
T_REC_XTP	69
T_REC_HLD	26
T_REC_XHO	6
T_REC_STR	11
T_REC_BST	1
T_REC_XST	5
T_REC_TTP	24
T_REC_THO	3
T_REC_SLD	17
T_REC_ALL	470
T_NUM_TAP	401
T_NUM_BRK	17
T_NUM_HLD	35
T_NUM_SLD	17
T_NUM_ALL	470
T_JUDGE_TAP	418
T_JUDGE_HLD	90
T_JUDGE_SLD	17
T_JUDGE_ALL	525
TTM_EACHPAIRS	124
TTM_SCR_TAP	200500
TTM_SCR_BRK	44200
TTM_SCR_HLD	35000
TTM_SCR_SLD	25500
TTM_SCR_ALL	305200
TTM_SCR_S	294400
TTM_SCR_SS	303500
TTM_RAT_ACV	10056

