VERSION	0.00.00	1.03.00
FES_MODE	0
BPM_DEF	125.000	125.000	125.000	125.000
MET_DEF	4	4
RESOLUTION	384
CLK_DEF	384
COMPATIBLE_CODE	MA2

BPM	0	0	125.000
MET	0	0	8	4
MET	8	0	4	4
MET	17	0	4	1
MET	17	96	8	4
MET	18	96	4	4
MET	19	96	8	4
MET	20	96	4	4
MET	21	96	8	4
MET	22	96	4	4
MET	23	96	8	4
MET	24	96	4	4
MET	25	96	8	6
MET	44	288	8	4
MET	60	288	4	4
MET	68	288	8	6
MET	70	96	8	5
MET	73	144	8	6
MET	74	48	8	5
MET	74	288	8	6
MET	77	288	8	7

HLD	1	0	3	384
HLD	3	0	4	384
TTP	5	0	3	E	0	L1
TTP	5	192	2	E	0	L1
TTP	5	192	4	E	0	L1
TTP	6	0	5	E	0	L1
TTP	6	192	4	E	0	L1
TTP	6	192	6	E	0	L1
THO	7	0	0	384	C	1	L1
TAP	9	0	0
TAP	9	192	0
TAP	10	0	1
TAP	10	96	1
TAP	10	192	0
TAP	10	192	1
TAP	11	0	2
TAP	11	192	2
TAP	12	0	3
TAP	12	96	3
TAP	12	192	3
TAP	12	192	4
HLD	13	0	4	192
HLD	14	0	5	192
XTP	15	0	6
XTP	15	0	7
XTP	15	192	0
XTP	15	192	1
XTP	16	0	7
XTP	16	96	0
XHO	16	192	7	192
TAP	17	96	7
TAP	17	192	7
TAP	17	288	0
STR	18	0	0
SI_	18	0	0	96	192	4
TAP	19	96	0
TAP	19	192	0
TAP	19	288	7
STR	20	0	7
SI_	20	0	7	96	192	3
TAP	21	96	2
TAP	21	192	2
TAP	21	288	3
TAP	22	0	3
HLD	22	96	2	192
HLD	22	96	4	192
TAP	23	96	5
TAP	23	192	5
TAP	23	288	4
TAP	24	0	4
TAP	24	96	3
TAP	24	96	5
TAP	24	192	3
TAP	24	192	5
TAP	24	288	2
TAP	24	288	4
BRK	25	0	2
BRK	25	0	4
HLD	25	96	1	96
TAP	25	288	1
HLD	26	0	0	96
TAP	26	192	0
HLD	26	288	7	96
TAP	27	96	7
HLD	27	192	6	96
TAP	28	0	6
THO	28	96	0	864	C	1	L1
TAP	31	96	7
TAP	31	192	6
TAP	31	240	6
TAP	31	336	5
TAP	32	0	5
TAP	32	96	4
TAP	32	144	3
TAP	32	144	4
TAP	32	288	3
TAP	33	0	2
TAP	33	48	2
TAP	33	144	1
TAP	33	192	1
TAP	33	288	0
TAP	33	336	0
TAP	33	336	7
TAP	34	96	0
TAP	34	192	1
TAP	34	240	1
TAP	34	336	2
TAP	35	0	2
TAP	35	96	3
TAP	35	144	3
TAP	35	144	4
TAP	35	288	4
TAP	36	0	5
TAP	36	48	5
TAP	36	144	6
TAP	36	192	6
TAP	36	288	7
BRK	36	336	0
BRK	36	336	7
HLD	37	96	0	144
TAP	38	0	1
TAP	38	48	1
TAP	38	96	1
TAP	38	144	0
TAP	38	144	1
HLD	38	288	7	144
TAP	39	192	6
TAP	39	240	6
TAP	39	288	6
TAP	39	336	6
TAP	39	336	7
HLD	40	96	0	144
HLD	40	96	1	144
TAP	41	0	7
TAP	41	48	7
TAP	41	96	7
TAP	41	144	0
TAP	41	144	7
HLD	41	288	6	144
HLD	41	288	7	144
HLD	42	192	0	144
HLD	42	192	1	144
XTP	43	96	6
XTP	43	96	7
XTP	43	240	0
XTP	43	240	1
XTP	44	0	0
XTP	44	0	7
BRK	44	144	1
BRK	44	144	6
TTP	44	288	2	B	0	L1
TTP	45	96	1	B	0	L1
TTP	45	96	3	B	0	L1
TTP	45	288	4	B	0	L1
TTP	46	96	3	B	0	L1
TTP	46	96	5	B	0	L1
TTP	46	288	6	B	0	L1
TTP	47	96	5	B	0	L1
TTP	47	96	7	B	0	L1
TTP	47	288	0	B	0	L1
TTP	48	96	1	B	0	L1
TTP	48	96	7	B	0	L1
TTP	48	288	2	B	0	L1
TTP	48	288	3	B	0	L1
TTP	49	96	4	B	0	L1
TTP	49	96	5	B	0	L1
TTP	49	288	1	B	0	L1
TTP	49	288	2	B	0	L1
TTP	50	96	5	B	0	L1
TTP	50	96	6	B	0	L1
TTP	50	288	3	B	0	L1
TTP	50	288	4	B	0	L1
TTP	51	96	1	B	0	L1
TTP	51	96	6	B	0	L1
THO	51	288	0	384	C	1	L1
HLD	54	288	3	192
HLD	55	288	4	192
TAP	56	288	3
TAP	57	0	3
TAP	57	96	4
TAP	57	192	4
TAP	57	288	3
TAP	58	0	2
TAP	58	0	3
TAP	58	96	4
TAP	58	192	4
TAP	58	192	5
TAP	58	288	3
TAP	58	336	3
TAP	59	0	3
TAP	59	96	4
TAP	59	144	4
TAP	59	192	4
TAP	59	288	3
TAP	59	336	3
TAP	60	0	4
TAP	60	48	4
BRK	60	96	3
TAP	60	288	2
TAP	61	0	2
TAP	61	0	3
TAP	61	96	2
TAP	61	192	2
TAP	61	192	3
TAP	61	288	2
TAP	62	0	2
TAP	62	0	3
TAP	62	96	4
TAP	62	144	4
TAP	62	192	4
TAP	62	288	5
TAP	63	0	4
TAP	63	0	5
TAP	63	96	5
TAP	63	192	4
TAP	63	192	5
TAP	63	288	5
TAP	64	0	4
TAP	64	0	5
TAP	64	96	3
TAP	64	144	3
BRK	64	192	3
HLD	64	288	2	96
HLD	64	288	4	96
HLD	65	96	3	96
HLD	65	96	5	96
TAP	65	288	4
TAP	66	0	3
TAP	66	96	4
TAP	66	144	4
TAP	66	192	3
TAP	66	192	4
XTP	66	288	2
XTP	66	288	3
XTP	67	96	4
XTP	67	96	5
TAP	67	288	3
TAP	67	288	4
TAP	68	0	2
TAP	68	0	5
BRK	68	96	1
BRK	68	96	6
HLD	68	288	0	144
HLD	68	288	1	144
HLD	69	192	2	144
HLD	69	192	3	144
XHO	70	96	4	72
XHO	70	96	5	72
XTP	70	240	6
XHO	70	336	6	72
XHO	70	336	7	72
XTP	71	96	0
XHO	71	192	0	72
TAP	71	336	7
XHO	72	48	7	72
TAP	72	192	0
XHO	72	288	0	72
XHO	72	288	1	72
TAP	73	48	7
XHO	73	144	6	72
XHO	73	144	7	72
BRK	73	288	0
XTP	74	48	0
XTP	74	48	1
XTP	74	120	0
XTP	74	120	1
XTP	74	192	0
XTP	74	192	1
XTP	74	264	0
XTP	74	264	1
TAP	74	336	7
TAP	75	0	7
TAP	75	48	0
TAP	75	96	0
XTP	75	192	6
XTP	75	192	7
XTP	75	264	6
XTP	75	264	7
XTP	75	336	6
XTP	75	336	7
XTP	76	24	6
XTP	76	24	7
TAP	76	96	0
TAP	76	144	0
TAP	76	192	7
TAP	76	240	7
TAP	76	288	6
TAP	76	336	6
TAP	77	0	5
TAP	77	48	5
TAP	77	96	4
TAP	77	144	4
TAP	77	192	3
TAP	77	240	3
HLD	77	288	2	192
HLD	77	288	5	192
TTP	78	240	0	C	1	L1
TTP	78	240	1	B	0	L1
TTP	78	240	2	B	0	L1
TTP	78	240	5	B	0	L1
TTP	78	240	6	B	0	L1

T_REC_TAP	153
T_REC_BRK	11
T_REC_XTP	34
T_REC_HLD	30
T_REC_XHO	11
T_REC_STR	2
T_REC_BST	0
T_REC_XST	0
T_REC_TTP	35
T_REC_THO	3
T_REC_SLD	2
T_REC_ALL	281
T_NUM_TAP	224
T_NUM_BRK	11
T_NUM_HLD	44
T_NUM_SLD	2
T_NUM_ALL	281
T_JUDGE_TAP	235
T_JUDGE_HLD	158
T_JUDGE_SLD	2
T_JUDGE_ALL	395
TTM_EACHPAIRS	54
TTM_SCR_TAP	112000
TTM_SCR_BRK	28600
TTM_SCR_HLD	44000
TTM_SCR_SLD	3000
TTM_SCR_ALL	187600
TTM_SCR_S	180950
TTM_SCR_SS	186500
TTM_RAT_ACV	10058

