VERSION	0.00.00	1.03.00
FES_MODE	0
BPM_DEF	137.000	137.000	137.000	137.000
MET_DEF	4	4
RESOLUTION	384
CLK_DEF	384
COMPATIBLE_CODE	MA2

BPM	0	0	137.000
MET	0	0	4	4

TAP	1	0	2
TAP	1	48	2
HLD	1	96	2	72
TAP	1	168	3
TAP	1	240	4
TAP	1	288	3
TAP	1	336	4
TAP	2	0	5
TAP	2	48	5
HLD	2	96	5	72
TAP	2	168	4
TAP	2	240	2
TAP	2	288	3
TAP	2	288	4
TAP	3	0	5
TAP	3	48	5
HLD	3	96	5	72
TAP	3	168	4
TAP	3	240	3
TAP	3	288	4
TAP	3	336	3
TTP	4	0	6	E	0	M1
TTP	4	48	4	E	0	M1
TTP	4	96	2	E	0	M1
TTP	4	144	0	E	0	M1
THO	4	192	0	96	C	1	M1
TTP	4	192	2	B	0	M1
TTP	4	192	5	B	0	M1
TAP	5	0	7
TAP	5	48	7
TAP	5	96	7
HLD	5	120	0	48
HLD	5	168	3	48
TAP	5	216	2
TAP	5	240	3
TAP	5	288	1
TAP	5	288	4
TAP	5	336	3
TAP	6	0	0
TAP	6	48	0
TAP	6	96	0
HLD	6	120	7	48
HLD	6	168	4	48
TAP	6	216	5
TAP	6	240	4
TAP	6	288	3
TAP	6	288	6
TAP	7	0	7
TAP	7	48	7
HLD	7	72	0	48
TAP	7	120	7
TAP	7	168	1
TAP	7	168	6
TAP	7	216	1
TAP	7	216	6
TAP	7	264	2
TAP	7	288	4
TAP	7	312	3
STR	7	336	5
SUL	7	336	5	96	144	2
BRK	8	288	1
BRK	8	288	6
HLD	9	0	2	72
TAP	9	0	4
TAP	9	72	3
TAP	9	96	3
TAP	9	144	2
TAP	9	168	2
TAP	9	216	3
TAP	9	240	2
TAP	9	264	3
TAP	9	288	2
TAP	9	336	5
TAP	9	360	4
TAP	10	0	5
TAP	10	48	3
TAP	10	72	3
TAP	10	120	3
TAP	10	120	4
TAP	10	168	2
TAP	10	168	3
TAP	10	216	3
TAP	10	240	2
TAP	10	264	3
TAP	10	288	2
TAP	10	336	2
TAP	10	336	4
TAP	11	0	3
HLD	11	0	5	72
TAP	11	72	4
TAP	11	96	4
TAP	11	144	5
TAP	11	168	5
TAP	11	216	4
TAP	11	240	5
TAP	11	264	4
TAP	11	288	5
TAP	11	336	2
TAP	11	360	3
TAP	12	0	2
TAP	12	48	4
TAP	12	72	4
TAP	12	120	3
TAP	12	120	4
TAP	12	168	4
TAP	12	168	5
TAP	12	216	4
TAP	12	240	5
TAP	12	264	4
TAP	12	288	5
TAP	12	336	3
TAP	12	336	6
TAP	13	48	6
TAP	13	48	7
TAP	13	96	0
TAP	13	96	5
TAP	13	144	1
HLD	13	168	1	48
TAP	13	216	3
TAP	13	240	2
TAP	13	264	3
TAP	13	288	2
TAP	13	336	3
TAP	13	336	4
TAP	14	48	0
TAP	14	48	1
TAP	14	96	2
TAP	14	96	7
TAP	14	144	6
HLD	14	168	6	48
TAP	14	216	4
TAP	14	240	5
TAP	14	264	4
TAP	14	288	5
TAP	14	336	3
TAP	14	336	4
TAP	15	48	0
TAP	15	48	7
TAP	15	96	1
TAP	15	96	6
TAP	15	144	2
HLD	15	168	2	48
TAP	15	216	4
TAP	15	240	3
TAP	15	264	4
BRK	15	288	3
XHO	15	360	5	120
TAP	16	48	4
TTP	16	96	3	B	0	M1
TTP	16	96	4	E	0	M1
HLD	16	168	1	120
TAP	16	240	2
TTP	16	288	3	B	0	M1
TTP	16	288	3	E	0	M1
HLD	16	360	6	120
TAP	17	48	5
TTP	17	96	4	B	0	M1
TTP	17	96	5	E	0	M1
HLD	17	168	2	120
TAP	17	240	3
TTP	17	288	4	B	0	M1
TTP	17	288	4	E	0	M1
HLD	17	360	7	120
TAP	18	48	5
TTP	18	96	6	B	0	M1
TTP	18	96	6	E	0	M1
HLD	18	168	0	120
TAP	18	240	2
TTP	18	288	1	B	0	M1
TTP	18	288	2	E	0	M1
TAP	18	360	6
TAP	19	24	6
TAP	19	48	7
TTP	19	96	2	B	0	M1
TTP	19	96	3	B	0	M1
TTP	19	96	4	E	0	M1
TAP	19	168	1
TAP	19	216	1
TAP	19	240	0
TTP	19	288	4	B	0	M1
TTP	19	288	4	E	0	M1
TTP	19	288	5	B	0	M1
HLD	19	360	6	120
TAP	20	48	7
TTP	20	96	5	B	0	M1
TTP	20	96	6	B	0	M1
HLD	20	168	1	120
TAP	20	240	0
TTP	20	288	1	B	0	M1
TTP	20	288	2	B	0	M1
HLD	20	360	5	48
TAP	21	24	4
TAP	21	48	5
TAP	21	72	4
TAP	21	96	5
TAP	21	144	0
TAP	21	144	7
BRK	21	192	2
BRK	21	192	5
TAP	21	288	3
TAP	21	312	3
XHO	21	360	4	72
TAP	22	48	2
TAP	22	96	3
TAP	22	96	4
TAP	22	144	5
TAP	22	192	3
TAP	22	192	4
STR	22	240	2
SCL	22	240	2	96	144	5
TAP	22	288	3
HLD	22	336	4	144
TAP	23	192	3
TAP	23	192	4
TAP	23	240	3
TAP	23	240	4
TTP	23	288	0	C	1	M1
TTP	23	288	2	E	0	M1
TTP	23	288	6	E	0	M1
XST	24	0	0
SI_	24	0	0	96	48	4
XTP	24	0	7
TAP	24	48	1
TAP	24	96	0
STR	24	96	6
SI_	24	96	6	96	48	3
TAP	24	144	7
TAP	24	192	0
TAP	24	192	6
TAP	24	240	1
TAP	24	288	2
TAP	24	288	7
TAP	24	336	1
TAP	25	0	0
STR	25	0	7
SI_	25	0	7	96	48	3
TAP	25	48	6
STR	25	96	1
SI_	25	96	1	96	48	4
TAP	25	96	7
TAP	25	144	0
TAP	25	192	1
TAP	25	192	7
TAP	25	240	6
TAP	25	288	0
TAP	25	288	5
TAP	25	336	4
XST	26	0	1
SXR	26	0	1	96	96	4
TAP	26	48	3
TAP	26	96	4
TAP	26	144	5
XST	26	192	6
SUL	26	192	6	96	96	3
TAP	26	240	3
TAP	26	288	2
TAP	26	336	1
TAP	27	0	0
XTP	27	48	4
XTP	27	48	6
XTP	27	72	4
XTP	27	72	6
XTP	27	120	1
XTP	27	120	3
XHO	27	144	1	96
XTP	27	144	3
TAP	27	240	0
TAP	27	256	7
TAP	27	272	6
TTP	27	288	0	C	1	M1
TAP	27	288	5
XTP	28	0	0
XST	28	0	7
SI_	28	0	7	96	48	3
TAP	28	48	6
STR	28	96	1
SI_	28	96	1	96	48	4
TAP	28	96	7
TAP	28	144	0
TAP	28	192	1
TAP	28	192	7
TAP	28	240	6
TAP	28	288	0
TAP	28	288	5
TAP	28	336	6
STR	29	0	0
SI_	29	0	0	96	48	4
TAP	29	0	7
TAP	29	48	1
TAP	29	96	0
STR	29	96	6
SI_	29	96	6	96	48	3
TAP	29	144	7
TAP	29	192	0
TAP	29	192	6
TAP	29	240	1
TAP	29	288	2
TAP	29	288	7
TAP	29	336	3
TAP	30	0	6
TAP	30	24	7
TAP	30	48	6
TAP	30	72	7
TAP	30	96	5
TAP	30	120	4
TAP	30	144	5
TAP	30	168	4
TAP	30	192	3
TAP	30	216	2
TAP	30	240	3
TAP	30	264	2
TTP	30	288	0	C	0	M1
TTP	30	336	4	E	0	M1
TAP	31	0	0
TAP	31	24	7
TAP	31	72	2
TAP	31	96	3
TAP	31	144	5
TAP	31	168	4
TAP	31	216	3
TAP	31	216	4
TAP	31	264	2
TAP	31	264	5
BRK	31	312	0
BRK	31	312	7
XST	32	0	1
SI_	32	0	1	96	48	4
XTP	32	0	6
TAP	32	48	2
TAP	32	96	1
STR	32	96	6
SI_	32	96	6	96	48	3
TAP	32	144	5
STR	32	192	1
SI_	32	192	1	96	48	7
TAP	32	192	6
TAP	32	240	2
TAP	32	288	1
STR	32	288	6
SI_	32	288	6	96	48	4
TAP	32	336	5
STR	33	0	1
SI_	33	0	1	96	48	3
TAP	33	0	6
TAP	33	48	2
TAP	33	96	1
TAP	33	96	6
TAP	33	144	5
TAP	33	192	1
TAP	33	192	6
TAP	33	240	7
TAP	33	264	7
TAP	33	312	2
TAP	33	336	2
TAP	34	0	3
STR	34	0	4
SI_	34	0	4	96	48	7
TAP	34	48	5
STR	34	96	3
SI_	34	96	3	96	48	0
TAP	34	96	4
TAP	34	144	2
TAP	34	192	3
TAP	34	192	4
TAP	34	240	5
TAP	34	264	5
TAP	34	312	0
TAP	34	336	0
TAP	35	0	6
TAP	35	24	7
TAP	35	48	6
TAP	35	72	7
TAP	35	96	6
TAP	35	144	1
TAP	35	144	5
BRK	35	192	3
BRK	35	192	7
TAP	35	312	2
TAP	35	336	2
XST	36	0	0
SI_	36	0	0	96	48	4
XTP	36	0	7
TTP	36	48	2	E	0	M1
TAP	36	96	0
STR	36	96	7
SI_	36	96	7	96	48	3
TTP	36	144	6	E	0	M1
STR	36	192	0
SI_	36	192	0	96	48	4
TAP	36	192	7
TTP	36	240	2	B	0	M1
TAP	36	288	0
STR	36	288	7
SI_	36	288	7	96	48	3
TTP	36	336	5	B	0	M1
STR	37	0	0
SI_	37	0	0	96	48	4
TAP	37	0	7
TTP	37	48	2	E	0	M1
TAP	37	96	0
TAP	37	96	7
TTP	37	144	6	E	0	M1
TAP	37	192	0
TAP	37	192	7
TAP	37	240	1
TAP	37	264	1
TAP	37	312	6
TAP	37	336	6
XST	38	0	0
SI_	38	0	0	96	48	4
XTP	38	0	7
TTP	38	48	1	B	0	M1
TTP	38	48	2	B	0	M1
TAP	38	96	0
STR	38	96	7
SI_	38	96	7	96	48	3
TTP	38	144	5	B	0	M1
TTP	38	144	6	B	0	M1
TAP	38	192	0
TAP	38	192	7
TTP	38	240	1	B	0	M1
TTP	38	240	2	B	0	M1
TAP	38	288	0
TAP	38	288	5
XHO	39	0	1	72
XHO	39	0	6	72
XTP	39	96	3
XTP	39	96	4
XHO	39	120	3	48
XHO	39	120	4	48
XTP	39	192	0
TAP	39	216	7
TAP	39	240	0
TAP	39	264	7
BRK	39	288	1
BRK	39	288	6
HLD	39	360	2	72
TAP	40	48	3
TAP	40	96	1
TAP	40	120	0
TAP	40	168	2
TAP	40	168	7
TAP	40	240	6
TAP	40	288	6
TAP	40	312	7
TAP	40	360	0
TAP	40	360	5
TAP	41	48	2
TAP	41	48	4
TAP	41	96	3
TAP	41	96	5
TAP	41	144	6
TAP	41	168	4
TAP	41	216	1
TAP	41	240	3
TAP	41	288	2
TAP	41	288	5
HLD	41	360	6	72
TAP	42	48	7
TAP	42	96	5
TAP	42	120	4
TAP	42	168	3
TAP	42	168	6
TAP	42	240	2
TAP	42	288	2
TAP	42	312	3
TAP	42	360	1
TAP	42	360	4
TAP	43	48	6
TAP	43	48	7
TAP	43	96	0
TAP	43	96	5
TAP	43	144	1
TAP	43	144	4
TAP	43	168	1
HLD	43	168	4	48
TAP	43	216	3
TAP	43	240	4
TAP	43	264	3
BRK	43	288	6
HLD	43	360	5	72
TAP	44	48	4
TAP	44	96	6
TAP	44	120	7
TAP	44	168	0
TAP	44	168	5
TAP	44	240	1
TAP	44	288	1
TAP	44	312	0
TAP	44	360	2
TAP	44	360	7
TAP	45	48	3
TAP	45	48	5
TAP	45	96	2
TAP	45	96	4
TAP	45	144	1
TAP	45	168	3
TAP	45	216	6
TAP	45	240	4
TAP	45	288	1
TAP	45	288	6
TAP	45	360	0
HLD	45	360	5	72
TAP	46	48	4
TAP	46	96	6
TAP	46	120	6
HLD	46	168	2	72
TAP	46	168	7
TAP	46	240	3
TAP	46	288	1
TAP	46	312	1
TAP	46	360	3
HLD	46	360	6	72
TAP	47	48	7
TAP	47	96	5
TAP	47	120	5
HLD	47	168	1	72
TAP	47	168	4
TAP	47	240	0
TAP	47	288	2
TAP	47	312	2
TAP	47	360	3
XHO	48	0	4	48
TAP	48	72	4
TAP	48	120	4
TAP	48	168	4
HLD	48	192	3	48
TAP	48	264	3
TAP	48	312	3
TAP	48	360	3
TAP	49	0	4
TAP	49	48	4
TAP	49	96	4
TAP	49	144	3
TAP	49	168	3
TAP	49	216	4
TAP	49	240	4
TAP	49	288	3
TAP	49	312	3
THO	49	360	0	360	C	1	M1
TTP	50	336	1	B	0	M1
TTP	50	336	6	B	0	M1
TAP	51	192	0
TAP	51	192	7
STR	51	240	0
SI_	51	240	0	96	48	4
STR	51	240	7
SI_	51	240	7	96	48	3
TAP	51	288	1
TAP	51	288	6
TAP	51	336	0
TAP	51	336	7
STR	52	192	3
SI_	52	192	3	96	48	7
STR	52	192	4
SI_	52	192	4	96	48	0
TAP	52	240	2
TAP	52	240	5
BRK	52	288	3
BRK	52	288	4
XTP	53	0	0
XST	53	0	7
SCL	53	0	7	96	48	4
TAP	53	48	6
STR	53	96	1
SI_	53	96	1	96	48	5
TAP	53	96	7
TAP	53	144	0
TAP	53	192	1
TAP	53	192	7
TAP	53	240	6
TAP	53	288	0
TAP	53	288	5
TAP	53	336	6
STR	54	0	0
SCR	54	0	0	96	48	3
TAP	54	0	7
TAP	54	48	1
TAP	54	96	0
STR	54	96	6
SI_	54	96	6	96	48	2
TAP	54	144	7
TAP	54	192	0
TAP	54	192	6
TAP	54	240	1
TAP	54	288	2
TAP	54	288	7
TAP	54	336	3
XST	55	0	6
SXL	55	0	6	96	96	3
TAP	55	48	4
TAP	55	96	3
TAP	55	144	2
XST	55	192	1
SUR	55	192	1	96	96	4
TAP	55	240	4
TAP	55	288	5
TAP	55	336	6
TAP	56	0	7
XTP	56	48	1
XTP	56	48	3
XTP	56	72	1
XTP	56	72	3
XTP	56	120	4
XTP	56	120	6
XTP	56	144	4
XHO	56	144	6	96
TAP	56	240	7
TAP	56	256	0
TAP	56	272	1
TTP	56	288	0	C	1	M1
TAP	56	288	2
XST	57	0	1
SCR	57	0	1	96	48	4
XTP	57	0	7
TAP	57	48	0
TAP	57	96	1
STR	57	96	6
SI_	57	96	6	96	48	2
TAP	57	144	7
STR	57	192	0
SI_	57	192	0	96	48	4
TAP	57	192	6
TAP	57	240	1
TAP	57	288	0
TAP	57	288	7
TAP	57	336	5
TAP	58	0	0
STR	58	0	6
SCL	58	0	6	96	48	3
TAP	58	48	7
STR	58	96	1
SI_	58	96	1	96	48	5
TAP	58	96	6
TAP	58	144	0
TAP	58	192	1
STR	58	192	7
SI_	58	192	7	96	48	3
TAP	58	240	6
TAP	58	288	0
TAP	58	288	7
TAP	58	336	2
TAP	59	0	1
TAP	59	24	0
TAP	59	48	1
TAP	59	72	0
TAP	59	96	2
TAP	59	120	3
TAP	59	144	2
TAP	59	168	3
TAP	59	192	4
TAP	59	216	5
TAP	59	240	4
TAP	59	264	5
TTP	59	288	0	C	0	M1
TTP	59	336	3	B	0	M1
TTP	59	336	4	B	0	M1
TAP	60	0	7
TAP	60	24	0
TAP	60	72	5
TAP	60	96	4
TAP	60	144	2
TAP	60	168	3
TAP	60	216	3
TAP	60	216	4
TAP	60	264	2
TAP	60	264	5
BRK	60	312	0
BRK	60	312	7
XTP	61	0	1
XST	61	0	6
SI_	61	0	6	96	48	3
TAP	61	48	5
STR	61	96	0
SI_	61	96	0	96	48	4
TAP	61	96	6
TAP	61	144	1
TAP	61	192	0
STR	61	192	7
SI_	61	192	7	96	48	3
TAP	61	240	5
STR	61	288	1
SI_	61	288	1	96	48	7
TAP	61	288	7
TAP	61	336	2
TAP	62	0	1
STR	62	0	5
SI_	62	0	5	96	48	3
TAP	62	48	6
TAP	62	96	0
TAP	62	96	5
TAP	62	144	2
TAP	62	192	1
TAP	62	192	6
TAP	62	240	0
TAP	62	264	0
TAP	62	312	5
TAP	62	336	5
STR	63	0	3
SI_	63	0	3	96	48	7
TAP	63	0	4
TAP	63	48	2
TAP	63	96	3
STR	63	96	4
SI_	63	96	4	96	48	0
TAP	63	144	5
TAP	63	192	3
TAP	63	192	4
TAP	63	240	2
TAP	63	264	2
TAP	63	312	7
TAP	63	336	7
TAP	64	0	1
TAP	64	24	0
TAP	64	48	1
TAP	64	72	0
TAP	64	96	1
TAP	64	144	2
TAP	64	144	6
BRK	64	192	0
BRK	64	192	4
TAP	64	312	5
TAP	64	336	5
XTP	65	0	0
XST	65	0	7
SI_	65	0	7	96	48	3
TTP	65	48	5	B	0	M1
STR	65	96	0
SI_	65	96	0	96	48	4
TAP	65	96	7
TTP	65	144	2	B	0	M1
TAP	65	192	0
STR	65	192	6
SCL	65	192	6	96	48	3
TTP	65	240	7	B	0	M1
STR	65	288	1
SCR	65	288	1	96	48	4
TAP	65	288	6
TTP	65	336	0	B	0	M1
TAP	66	0	1
STR	66	0	7
SI_	66	0	7	96	48	3
TTP	66	48	6	E	0	M1
TAP	66	96	0
TAP	66	96	7
TTP	66	144	2	E	0	M1
TAP	66	192	0
TAP	66	192	7
TAP	66	240	1
TAP	66	264	1
TAP	66	312	6
TAP	66	336	6
STR	67	0	0
SI_	67	0	0	96	48	4
TAP	67	0	7
TTP	67	48	1	B	0	M1
TTP	67	48	2	B	0	M1
TTP	67	48	2	E	0	M1
TAP	67	96	0
STR	67	96	7
SI_	67	96	7	96	48	3
TTP	67	144	5	B	0	M1
TTP	67	144	6	B	0	M1
TTP	67	144	6	E	0	M1
TAP	67	192	0
TAP	67	192	7
TTP	67	240	1	B	0	M1
TTP	67	240	2	B	0	M1
TTP	67	240	2	E	0	M1
BRK	67	288	0
BRK	67	288	5
XHO	68	0	1	72
XHO	68	0	6	72
XTP	68	96	3
XTP	68	96	4
XHO	68	120	3	48
XHO	68	120	4	48
XTP	68	192	0
TAP	68	216	7
TAP	68	240	0
TAP	68	264	7
XTP	68	312	3
XTP	68	312	4
BRK	68	360	1
BRK	68	360	6
TAP	69	48	0
TAP	69	96	2
TAP	69	120	3
TAP	69	168	3
TAP	69	168	4
TAP	69	216	5
TAP	69	240	4
TAP	69	288	3
TAP	69	288	6
TAP	69	336	7
TAP	69	360	0
TAP	70	0	7
TAP	70	48	7
TAP	70	96	5
TAP	70	120	4
TAP	70	168	3
TAP	70	168	4
TAP	70	216	2
TAP	70	240	3
TAP	70	288	1
TAP	70	288	4
TAP	70	336	0
HLD	71	0	1	96
TAP	71	0	5
TAP	71	48	0
HLD	71	96	3	96
TAP	71	144	0
HLD	71	192	4	96
TAP	71	240	7
HLD	71	288	6	96
TAP	71	336	7
TAP	72	0	3
TAP	72	48	5
TAP	72	72	4
TAP	72	72	5
TAP	72	120	2
HLD	72	144	2	96
TAP	72	144	3
TAP	72	240	0
TAP	72	256	7
TAP	72	272	6
BRK	72	288	1
BRK	72	288	5
TAP	73	0	0
TAP	73	0	7
TAP	73	48	7
TAP	73	96	5
TAP	73	120	4
TAP	73	168	3
TAP	73	168	4
TAP	73	216	2
TAP	73	240	3
TAP	73	288	1
TAP	73	288	4
TAP	73	336	0
TAP	73	360	7
TAP	74	0	0
TAP	74	48	0
TAP	74	96	2
TAP	74	120	3
TAP	74	168	3
TAP	74	168	4
TAP	74	216	5
TAP	74	240	4
TAP	74	288	3
TAP	74	288	6
TAP	74	336	7
TAP	75	0	1
TAP	75	24	0
BRK	75	48	1
TAP	75	96	6
TAP	75	120	7
BRK	75	144	6
TAP	75	192	2
TAP	75	216	3
BRK	75	240	2
TAP	75	288	5
TAP	75	312	4
BRK	75	336	5
TAP	76	0	1
HLD	76	24	1	48
TAP	76	72	3
HLD	76	96	3	48
TAP	76	144	5
HLD	76	168	5	48
TAP	76	216	7
TAP	76	264	0
TAP	76	264	6
BRK	76	312	1
BRK	76	312	5
TAP	76	360	3
TAP	77	0	4
TAP	77	48	3
TAP	77	48	4
TAP	77	96	3
TAP	77	96	4
TAP	77	144	3
TAP	77	144	4
HLD	77	168	3	96
HLD	77	168	4	96
TTP	77	288	0	C	1	M1
TTP	77	288	1	B	0	M1
TTP	77	288	2	B	0	M1
TTP	77	288	5	B	0	M1
TTP	77	288	6	B	0	M1

T_REC_TAP	589
T_REC_BRK	30
T_REC_XTP	31
T_REC_HLD	41
T_REC_XHO	13
T_REC_STR	43
T_REC_BST	0
T_REC_XST	13
T_REC_TTP	72
T_REC_THO	2
T_REC_SLD	56
T_REC_ALL	890
T_NUM_TAP	748
T_NUM_BRK	30
T_NUM_HLD	56
T_NUM_SLD	56
T_NUM_ALL	890
T_JUDGE_TAP	778
T_JUDGE_HLD	108
T_JUDGE_SLD	56
T_JUDGE_ALL	942
TTM_EACHPAIRS	175
TTM_SCR_TAP	374000
TTM_SCR_BRK	78000
TTM_SCR_HLD	56000
TTM_SCR_SLD	84000
TTM_SCR_ALL	592000
TTM_SCR_S	571350
TTM_SCR_SS	589000
TTM_RAT_ACV	10050

