VERSION	0.00.00	1.03.00
FES_MODE	0
BPM_DEF	137.000	137.000	137.000	137.000
MET_DEF	4	4
RESOLUTION	384
CLK_DEF	384
COMPATIBLE_CODE	MA2

BPM	0	0	137.000
MET	0	0	4	4

HLD	1	0	3	384
TAP	1	96	4
TAP	1	288	2
HLD	2	0	4	384
TAP	2	96	3
TAP	2	288	5
HLD	3	0	3	384
TAP	3	96	4
STR	3	288	2
SCL	3	288	2	96	192	5
XTP	4	288	1
XTP	4	288	6
TAP	5	0	2
TAP	5	96	1
TAP	5	96	3
HLD	5	192	2	96
TAP	5	288	3
TAP	6	0	5
TAP	6	96	4
TAP	6	96	6
HLD	6	192	5	96
TAP	6	288	4
TAP	7	0	3
TAP	7	0	4
TAP	7	96	2
TAP	7	96	3
TAP	7	192	3
TAP	7	192	4
TAP	7	288	4
HLD	7	288	5	240
THO	8	0	0	144	C	0	M1
BRK	8	288	7
XST	9	0	0
SI_	9	0	0	96	48	4
XTP	9	0	6
TAP	9	192	5
TAP	9	240	5
TAP	9	288	4
TAP	9	288	5
TAP	10	0	6
TAP	10	96	4
TAP	10	96	6
TAP	10	192	2
TAP	10	240	2
TAP	10	288	3
XTP	11	0	1
XST	11	0	7
SI_	11	0	7	96	48	3
TAP	11	192	2
TAP	11	240	2
TAP	11	288	2
TAP	11	288	3
TAP	12	0	1
TAP	12	48	1
TAP	12	96	3
TAP	12	192	3
TAP	12	192	4
TAP	12	288	2
TAP	12	288	5
XTP	12	336	2
XTP	12	336	5
TAP	13	48	1
TAP	13	96	1
TAP	13	192	1
TAP	13	192	3
TAP	13	288	2
TAP	13	288	4
TAP	13	336	2
TAP	13	336	4
TAP	14	48	6
TAP	14	96	6
TAP	14	192	4
TAP	14	192	6
TAP	14	288	3
TAP	14	288	5
TAP	14	336	3
TAP	14	336	5
TAP	15	48	1
TAP	15	48	4
HLD	15	96	1	72
HLD	15	96	4	72
XTP	15	240	0
XTP	15	240	7
XTP	15	288	1
XTP	15	288	6
XHO	15	360	2	120
TAP	16	48	3
HLD	16	96	3	192
TAP	16	168	4
TAP	16	240	4
HLD	16	288	4	192
TAP	16	360	5
TAP	17	48	5
STR	17	96	5
SCL	17	96	5	96	96	2
XTP	17	288	1
XHO	17	360	1	120
TAP	18	48	3
HLD	18	96	3	144
TAP	18	168	4
TAP	18	240	4
TAP	18	288	4
XHO	18	360	3	72
XHO	18	360	5	72
TAP	19	96	3
TAP	19	96	5
XHO	19	168	2	72
XHO	19	168	4	72
TAP	19	288	2
TAP	19	288	4
XHO	19	360	5	72
TAP	20	48	4
TAP	20	96	4
TAP	20	96	5
XHO	20	168	2	72
TAP	20	240	3
TAP	20	288	2
TAP	20	288	3
XHO	20	360	0	72
XHO	20	360	7	72
TAP	21	96	0
TAP	21	96	7
TAP	21	144	0
TAP	21	144	7
BRK	21	192	1
BRK	21	192	6
TAP	21	288	4
TAP	21	336	4
TAP	22	0	2
TAP	22	48	2
TAP	22	96	6
TAP	22	144	6
TAP	22	192	1
STR	22	240	0
SCR	22	240	0	96	144	3
STR	22	240	7
SCL	22	240	7	96	144	4
TAP	22	288	0
TAP	22	288	7
TTP	23	192	0	C	0	M1
TTP	23	192	1	B	0	M1
TTP	23	192	6	B	0	M1
TAP	24	0	3
TAP	24	0	4
TAP	24	48	5
TAP	24	96	4
STR	24	96	6
SI_	24	96	6	96	48	3
TAP	24	192	1
TAP	24	240	1
TAP	24	288	1
TAP	24	288	4
TAP	25	0	3
TAP	25	0	4
TAP	25	48	2
STR	25	96	1
SI_	25	96	1	96	48	4
TAP	25	96	3
STR	25	192	7
SI_	25	192	7	96	48	3
BRK	25	288	0
HLD	26	0	1	96
HLD	26	96	3	96
HLD	26	192	4	96
TAP	26	288	6
XHO	27	0	1	48
XHO	27	0	7	48
XHO	27	72	0	48
XHO	27	72	6	48
XTP	27	144	1
XTP	27	144	5
TAP	27	240	2
TAP	27	240	7
BRK	27	288	2
BRK	27	288	7
TAP	28	0	3
TAP	28	0	4
TAP	28	48	2
STR	28	96	1
SI_	28	96	1	96	48	4
TAP	28	96	3
TAP	28	192	6
TAP	28	240	6
TAP	28	288	6
TAP	28	288	7
TAP	29	0	3
TAP	29	0	4
TAP	29	48	5
TAP	29	96	4
STR	29	96	6
SI_	29	96	6	96	48	3
STR	29	192	0
SI_	29	192	0	96	48	4
BRK	29	288	7
TAP	30	0	5
TAP	30	48	5
TAP	30	96	4
TAP	30	144	6
TAP	30	192	1
TAP	30	240	1
TAP	30	288	1
TAP	30	288	3
THO	31	0	0	144	C	0	M1
XTP	31	312	1
XTP	31	312	6
TAP	32	0	2
TAP	32	48	2
TAP	32	96	3
TAP	32	144	1
TAP	32	192	6
TAP	32	240	6
TAP	32	288	7
TAP	32	336	5
XTP	33	0	4
XTP	33	0	6
XTP	33	96	1
XTP	33	96	3
HLD	33	192	3	48
HLD	33	192	4	48
TAP	33	288	3
TAP	33	288	4
TAP	34	0	6
TAP	34	48	6
TAP	34	96	4
TAP	34	144	5
TAP	34	192	2
TAP	34	240	2
TAP	34	288	3
TAP	34	336	1
TAP	35	0	0
TAP	35	0	1
TAP	35	48	0
TAP	35	48	1
STR	35	96	0
SI_	35	96	0	96	48	5
STR	35	96	1
SI_	35	96	1	96	48	4
BRK	35	288	3
BRK	35	288	6
TAP	36	0	5
TAP	36	48	5
TAP	36	96	4
TAP	36	144	6
TAP	36	192	1
TAP	36	240	1
TAP	36	288	0
TAP	36	336	2
XTP	37	0	1
XTP	37	0	3
XTP	37	96	4
XTP	37	96	6
HLD	37	192	3	48
HLD	37	192	4	48
TAP	37	288	3
TAP	37	288	4
TAP	38	0	1
TAP	38	48	1
TAP	38	96	3
TAP	38	144	3
TAP	38	192	4
TAP	38	240	4
TAP	38	288	4
TAP	38	288	6
THO	39	0	0	192	C	1	M1
XHO	39	360	0	72
XHO	39	360	7	72
TAP	40	96	1
TAP	40	96	6
HLD	40	168	2	72
TAP	40	240	3
TAP	40	288	1
TAP	40	288	4
HLD	40	360	5	72
TAP	41	48	4
TAP	41	96	3
TAP	41	96	6
HLD	41	168	0	72
HLD	41	168	7	72
XTP	41	288	0
XTP	41	288	7
HLD	41	360	1	72
TAP	42	48	0
TAP	42	96	2
TAP	42	96	7
HLD	42	168	6	72
TAP	42	240	7
TAP	42	288	0
TAP	42	288	5
XHO	42	360	1	72
XHO	42	360	6	72
STR	43	96	1
SI_	43	96	1	96	48	4
STR	43	96	6
SI_	43	96	6	96	48	3
BRK	43	288	2
BRK	43	288	6
XHO	43	360	0	72
XHO	43	360	7	72
TAP	44	96	1
TAP	44	96	6
HLD	44	168	5	72
TAP	44	240	4
TAP	44	288	3
TAP	44	288	6
HLD	44	360	2	72
TAP	45	48	3
TAP	45	96	1
TAP	45	96	4
HLD	45	168	3	72
HLD	45	168	4	72
XTP	45	288	2
XTP	45	288	5
HLD	45	360	6	120
TAP	46	48	7
TAP	46	96	7
HLD	46	168	5	120
TAP	46	240	4
TAP	46	288	4
HLD	46	360	1	120
TAP	47	48	0
TAP	47	96	0
HLD	47	168	7	72
TAP	47	240	0
BST	47	288	1
SCR	47	288	1	96	384	6
BRK	47	288	6
THO	48	0	0	384	C	0	M1
THO	49	360	0	360	C	1	M1
TTP	50	336	1	B	0	M1
TTP	50	336	6	B	0	M1
XTP	51	192	0
XTP	51	192	7
STR	51	288	1
SCR	51	288	1	96	96	4
STR	51	288	5
SCR	51	288	5	96	96	0
TTP	52	192	0	C	0	M1
BRK	53	0	0
BRK	53	0	7
TAP	53	48	1
STR	53	96	2
SI_	53	96	2	96	48	4
TAP	53	96	4
STR	53	192	6
SI_	53	192	6	96	48	2
XTP	53	288	0
XTP	54	0	0
XTP	54	0	7
TAP	54	48	6
TAP	54	96	3
STR	54	96	5
SI_	54	96	5	96	48	3
STR	54	192	1
SI_	54	192	1	96	48	5
BRK	54	288	7
HLD	55	0	6	96
HLD	55	96	4	96
HLD	55	192	3	96
TAP	55	288	1
XHO	56	0	0	48
XHO	56	0	6	48
XHO	56	72	1	48
XHO	56	72	7	48
XTP	56	144	2
XTP	56	144	6
TAP	56	240	0
TAP	56	240	4
BRK	56	288	0
BRK	56	288	4
XTP	57	0	0
XTP	57	0	7
TAP	57	48	1
STR	57	96	2
SI_	57	96	2	96	48	4
TAP	57	96	4
STR	57	192	6
SI_	57	192	6	96	48	2
XTP	57	288	0
XTP	58	0	0
XTP	58	0	7
TAP	58	48	6
TAP	58	96	3
STR	58	96	5
SI_	58	96	5	96	48	3
STR	58	192	1
SI_	58	192	1	96	48	5
XTP	58	288	7
TAP	59	0	6
TAP	59	48	7
TAP	59	96	1
TAP	59	144	2
TAP	59	192	5
TAP	59	240	4
HLD	59	288	0	96
THO	60	0	0	144	C	0	M1
XTP	60	312	1
XTP	60	312	7
TAP	61	0	0
TAP	61	48	0
TAP	61	96	2
TAP	61	144	2
TAP	61	192	4
TAP	61	240	4
TAP	61	288	6
TAP	61	336	6
XTP	62	0	0
XTP	62	0	5
XTP	62	96	2
XTP	62	96	7
HLD	62	192	3	48
HLD	62	192	4	48
TAP	62	288	2
TAP	62	288	5
TAP	63	0	7
TAP	63	48	7
TAP	63	96	4
TAP	63	144	5
TAP	63	192	0
TAP	63	240	0
TAP	63	288	3
TAP	63	336	2
TAP	64	0	2
TAP	64	0	3
TAP	64	48	2
TAP	64	48	3
STR	64	96	2
SI_	64	96	2	96	48	7
STR	64	96	3
SI_	64	96	3	96	48	6
BRK	64	288	0
BRK	64	288	5
TAP	65	0	7
TAP	65	48	7
TAP	65	96	5
TAP	65	144	5
TAP	65	192	3
TAP	65	240	3
TAP	65	288	1
TAP	65	336	1
XTP	66	0	2
XTP	66	0	7
XTP	66	96	0
XTP	66	96	5
HLD	66	192	0	48
HLD	66	192	7	48
TAP	66	288	1
TAP	66	288	6
TAP	67	0	5
TAP	67	48	6
TAP	67	96	7
TAP	67	144	0
TAP	67	192	1
TAP	67	240	2
TAP	67	288	3
TAP	67	288	4
TTP	68	0	0	C	1	M1
XTP	68	192	0
XTP	68	192	7
BRK	68	288	2
BRK	68	288	5
TAP	69	0	1
TAP	69	48	1
HLD	69	96	1	96
TAP	69	96	3
TAP	69	192	0
TAP	69	288	2
TAP	69	288	7
TAP	70	0	6
TAP	70	48	6
TAP	70	96	4
HLD	70	96	6	96
TAP	70	192	7
TAP	70	288	0
TAP	70	288	5
TAP	71	0	6
TAP	71	48	6
TAP	71	96	4
TAP	71	144	5
TAP	71	192	2
TAP	71	240	2
TAP	71	288	3
TAP	71	336	1
THO	72	0	0	144	C	0	M1
BRK	72	288	0
TAP	73	0	1
TAP	73	48	1
HLD	73	96	1	96
TAP	73	96	7
TAP	73	192	3
TAP	73	288	3
TAP	73	288	4
TAP	74	0	5
TAP	74	48	5
TAP	74	96	3
HLD	74	96	5	96
TAP	74	192	7
TAP	74	288	0
TAP	74	288	7
TAP	75	0	1
TAP	75	48	2
TAP	75	96	5
TAP	75	144	6
TAP	75	192	3
TAP	75	240	2
TAP	75	288	1
TAP	75	288	7
TAP	76	0	0
TAP	76	24	7
TAP	76	72	7
TAP	76	96	0
TAP	76	144	0
TAP	76	168	7
TAP	76	216	6
TAP	76	264	5
TAP	76	312	4
TAP	76	360	4
TAP	77	0	3
TAP	77	48	3
TAP	77	96	3
TAP	77	144	3
HLD	77	168	4	120
TTP	77	288	0	C	1	M1

T_REC_TAP	306
T_REC_BRK	22
T_REC_XTP	52
T_REC_HLD	45
T_REC_XHO	24
T_REC_STR	26
T_REC_BST	1
T_REC_XST	2
T_REC_TTP	8
T_REC_THO	7
T_REC_SLD	29
T_REC_ALL	522
T_NUM_TAP	394
T_NUM_BRK	23
T_NUM_HLD	76
T_NUM_SLD	29
T_NUM_ALL	522
T_JUDGE_TAP	417
T_JUDGE_HLD	186
T_JUDGE_SLD	29
T_JUDGE_ALL	632
TTM_EACHPAIRS	125
TTM_SCR_TAP	197000
TTM_SCR_BRK	59800
TTM_SCR_HLD	76000
TTM_SCR_SLD	43500
TTM_SCR_ALL	376300
TTM_SCR_S	362800
TTM_SCR_SS	374000
TTM_RAT_ACV	10061

