VERSION	0.00.00	1.03.00
FES_MODE	0
BPM_DEF	137.000	137.000	137.000	137.000
MET_DEF	4	4
RESOLUTION	384
CLK_DEF	384
COMPATIBLE_CODE	MA2

BPM	0	0	137.000
MET	0	0	4	4

HLD	1	0	2	384
HLD	2	0	3	384
HLD	3	0	4	384
TAP	4	0	5
TAP	4	192	3
TAP	4	192	4
XTP	4	288	3
XTP	4	288	4
TAP	5	0	2
TAP	5	96	2
TAP	5	192	2
TAP	5	192	3
TAP	6	0	5
TAP	6	96	5
TAP	6	192	4
TAP	6	192	5
TAP	7	0	3
TAP	7	0	4
TAP	7	96	3
TAP	7	96	4
TAP	7	192	2
TAP	7	192	5
TTP	8	0	0	C	1	L1
XTP	8	288	0
XTP	8	288	7
HLD	9	0	1	192
HLD	9	192	2	192
TAP	10	0	3
TAP	10	192	3
TAP	10	288	3
HLD	11	0	4	192
HLD	11	192	5	192
TAP	12	0	6
TAP	12	96	6
TAP	12	192	7
TAP	12	288	7
XTP	13	0	0
TAP	13	96	1
TAP	13	192	2
TAP	13	288	3
TAP	14	0	3
TAP	14	0	4
TAP	14	96	4
TAP	14	192	5
TAP	14	288	6
TAP	15	0	0
TAP	15	0	7
TAP	15	96	0
TAP	15	96	7
XTP	15	192	1
XTP	15	192	6
XTP	15	288	2
XTP	15	288	5
TTP	16	96	3	B	0	L1
TTP	16	96	3	E	0	L1
TTP	16	288	5	B	0	L1
TTP	16	288	5	E	0	L1
TTP	17	96	1	B	0	L1
TTP	17	96	2	B	0	L1
TTP	17	288	5	B	0	L1
TTP	17	288	6	B	0	L1
TTP	18	96	0	B	0	L1
TTP	18	96	1	E	0	L1
THO	18	288	0	384	C	0	L1
TTP	20	96	6	B	0	L1
TTP	20	96	7	E	0	L1
TTP	20	288	1	B	0	L1
TTP	20	288	2	B	0	L1
TTP	21	96	5	B	0	L1
TTP	21	96	5	E	0	L1
TTP	21	288	3	B	0	L1
TTP	21	288	4	B	0	L1
TTP	22	96	2	B	0	L1
TTP	22	96	5	B	0	L1
THO	22	288	0	288	C	0	L1
XTP	24	0	0
TAP	24	96	0
TAP	24	192	1
TAP	24	288	1
TAP	25	0	2
TAP	25	96	3
TAP	25	192	4
TAP	25	240	4
TAP	25	288	4
TAP	26	0	3
TAP	26	0	4
TAP	26	96	5
TAP	26	192	3
TAP	26	192	6
HLD	27	0	6	144
HLD	27	0	7	144
XTP	27	288	6
XTP	27	288	7
TAP	28	0	7
TAP	28	96	7
TAP	28	192	6
TAP	28	288	6
TAP	29	0	5
TAP	29	96	4
TAP	29	192	3
TAP	29	240	3
TAP	29	288	3
TAP	30	0	3
TAP	30	0	4
TAP	30	96	2
TAP	30	96	5
TAP	30	192	1
TAP	30	192	6
THO	31	0	0	144	C	1	L1
XST	32	0	7
SI_	32	0	7	96	192	4
STR	33	0	3
SI_	33	0	3	96	192	0
STR	34	0	7
SI_	34	0	7	96	192	3
TAP	35	0	2
TAP	35	96	2
XTP	35	192	1
XTP	35	192	3
STR	36	0	0
SI_	36	0	0	96	192	4
STR	37	0	5
SI_	37	0	5	96	192	0
STR	38	0	1
SI_	38	0	1	96	192	5
TAP	39	0	6
TAP	39	96	6
TAP	39	192	0
TAP	39	192	6
XTP	39	288	0
XTP	39	288	6
TTP	40	96	1	B	0	L1
TTP	40	96	2	B	0	L1
TTP	40	288	4	B	0	L1
TTP	40	288	5	B	0	L1
TTP	41	96	3	B	0	L1
TTP	41	192	0	C	0	L1
TTP	41	288	7	B	0	L1
TTP	42	96	5	B	0	L1
TTP	42	96	6	B	0	L1
TTP	42	288	2	B	0	L1
TTP	42	288	3	B	0	L1
TTP	43	96	4	B	0	L1
TTP	43	192	0	C	0	L1
TTP	43	288	0	B	0	L1
TTP	44	96	1	B	0	L1
TTP	44	96	1	E	0	L1
TTP	44	288	5	B	0	L1
TTP	44	288	6	B	0	L1
TTP	45	96	3	E	0	L1
TTP	45	192	4	E	0	L1
TTP	45	288	5	E	0	L1
TTP	46	96	0	B	0	L1
TTP	46	96	6	B	0	L1
TTP	46	288	1	B	0	L1
TTP	46	288	7	B	0	L1
TAP	47	96	0
TAP	47	192	0
BST	47	288	0
SXL	47	288	0	96	480	3
BST	47	288	7
SXR	47	288	7	96	480	4
THO	49	360	0	360	C	1	L1
THO	52	0	0	192	C	0	L1
XTP	53	0	0
XTP	53	0	7
TAP	53	96	6
TAP	53	192	5
TAP	53	288	4
TAP	53	288	5
TAP	54	0	3
TAP	54	96	2
TAP	54	192	1
TAP	54	240	1
TAP	54	288	1
TAP	55	0	0
TAP	55	0	1
TAP	55	96	2
TAP	55	96	7
TAP	55	192	3
TAP	55	192	6
HLD	56	0	4	144
HLD	56	0	5	144
XTP	56	288	4
XTP	56	288	5
XTP	57	0	3
XTP	57	0	4
TAP	57	96	2
TAP	57	192	1
TAP	57	288	0
TAP	57	288	1
TAP	58	0	7
TAP	58	96	6
TAP	58	192	5
TAP	58	240	5
TAP	58	288	5
TAP	59	0	4
TAP	59	0	5
TAP	59	96	3
TAP	59	96	6
TAP	59	192	2
TAP	59	192	7
THO	60	0	0	144	C	1	L1
XST	61	0	0
SI_	61	0	0	96	192	4
STR	62	0	5
SI_	62	0	5	96	192	2
STR	63	0	1
SI_	63	0	1	96	192	4
TAP	64	0	5
TAP	64	96	6
TAP	64	192	4
TAP	64	192	6
STR	65	0	6
SCR	65	0	6	96	192	1
STR	66	0	2
SI_	66	0	2	96	192	6
STR	67	0	5
SCL	67	0	5	96	192	2
TAP	68	0	0
TAP	68	0	1
TAP	68	96	2
TAP	68	96	7
BRK	68	192	3
BRK	68	192	6
HLD	69	0	5	96
TAP	69	96	4
TAP	69	192	3
TAP	69	192	6
TAP	69	288	3
TAP	69	288	6
HLD	70	0	2	96
TAP	70	96	3
TAP	70	192	1
TAP	70	192	4
HLD	71	0	0	96
HLD	71	0	7	96
TAP	71	192	1
TAP	71	192	6
TTP	72	0	0	C	1	L1
XTP	72	288	0
XTP	72	288	7
HLD	73	0	6	96
TAP	73	96	7
TAP	73	192	0
TAP	73	192	5
HLD	74	0	1	96
TAP	74	96	0
TAP	74	192	2
TAP	74	192	7
HLD	75	0	3	96
HLD	75	0	4	96
HLD	75	192	2	96
HLD	75	192	5	96
TTP	76	0	0	C	1	L1
THO	77	0	0	288	C	1	L1
TTP	77	0	1	B	0	L1
TTP	77	0	6	B	0	L1

T_REC_TAP	126
T_REC_BRK	2
T_REC_XTP	24
T_REC_HLD	21
T_REC_XHO	0
T_REC_STR	10
T_REC_BST	2
T_REC_XST	2
T_REC_TTP	50
T_REC_THO	7
T_REC_SLD	14
T_REC_ALL	258
T_NUM_TAP	212
T_NUM_BRK	4
T_NUM_HLD	28
T_NUM_SLD	14
T_NUM_ALL	258
T_JUDGE_TAP	216
T_JUDGE_HLD	110
T_JUDGE_SLD	14
T_JUDGE_ALL	340
TTM_EACHPAIRS	50
TTM_SCR_TAP	106000
TTM_SCR_BRK	10400
TTM_SCR_HLD	28000
TTM_SCR_SLD	21000
TTM_SCR_ALL	165400
TTM_SCR_S	160050
TTM_SCR_SS	165000
TTM_RAT_ACV	10024

