VERSION	0.00.00	1.03.00
FES_MODE	0
BPM_DEF	137.000	137.000	137.000	137.000
MET_DEF	4	4
RESOLUTION	384
CLK_DEF	384
COMPATIBLE_CODE	MA2

BPM	0	0	137.000
MET	0	0	4	4

TAP	5	0	3
TAP	5	192	3
TAP	6	0	4
TAP	6	192	4
TAP	7	0	3
TAP	7	192	3
TAP	8	0	3
TAP	8	0	4
XTP	9	0	4
TAP	9	192	4
TAP	10	0	5
TAP	10	192	5
XTP	11	0	6
TAP	11	192	6
TAP	12	0	7
HLD	12	192	0	240
HLD	12	192	7	240
XTP	13	192	0
XTP	13	192	7
TAP	14	0	1
TAP	14	192	1
TAP	15	0	2
TAP	15	192	2
TAP	15	192	3
TTP	16	0	4	B	0	L1
TTP	17	0	5	B	0	L1
TTP	18	0	6	B	0	L1
TTP	19	0	0	B	0	L1
TTP	19	0	7	B	0	L1
TTP	20	0	1	B	0	L1
TTP	21	0	2	B	0	L1
THO	22	0	0	336	C	1	L1
TAP	24	0	7
TAP	24	96	7
TAP	24	192	7
TAP	25	0	6
TAP	25	96	6
TAP	25	192	6
TAP	26	0	5
TAP	26	96	5
TAP	26	192	4
TAP	26	288	4
XHO	27	0	3	144
XHO	27	0	4	144
XTP	27	288	3
XTP	27	288	4
TAP	28	0	3
TAP	28	96	3
TAP	28	192	3
TAP	29	0	2
TAP	29	96	2
TAP	29	192	2
TAP	30	0	1
TAP	30	96	1
TAP	30	192	0
TAP	30	288	0
XHO	31	0	0	144
XHO	31	0	7	144
TAP	32	0	0
TAP	32	96	0
TAP	32	192	1
TAP	32	288	1
TAP	33	0	2
TAP	33	96	2
TAP	33	192	3
TAP	33	192	4
TAP	34	0	4
TAP	34	96	4
TAP	34	192	5
TAP	34	288	5
TAP	35	0	6
TAP	35	96	6
TAP	35	192	0
TAP	35	192	7
TAP	36	0	7
TAP	36	96	7
TAP	36	192	6
TAP	36	288	6
TAP	37	0	5
TAP	37	96	5
TAP	37	192	3
TAP	37	192	4
TAP	38	0	3
TAP	38	96	3
TAP	38	192	4
TAP	38	288	4
BRK	39	0	3
BRK	39	0	4
TTP	40	0	3	B	0	L1
TTP	41	0	2	B	0	L1
TTP	42	0	1	B	0	L1
TTP	43	0	0	B	0	L1
TTP	43	0	7	B	0	L1
TTP	44	0	6	B	0	L1
TTP	45	0	5	B	0	L1
THO	46	0	0	360	C	1	L1
STR	48	0	7
SI_	48	0	7	96	288	3
XTP	49	360	3
XTP	49	360	4
XHO	50	336	3	240
XHO	50	336	4	240
HLD	52	0	3	192
HLD	52	0	4	192
TAP	53	0	4
TAP	53	96	4
TAP	53	192	3
TAP	53	192	4
TAP	54	0	5
TAP	54	96	5
TAP	54	192	4
TAP	54	192	5
TAP	55	0	6
TAP	55	96	6
TAP	55	192	7
TAP	55	288	7
HLD	56	0	0	144
HLD	56	0	7	144
XTP	56	288	0
XTP	56	288	7
TAP	57	0	0
TAP	57	96	0
TAP	57	192	0
TAP	57	192	7
TAP	58	0	1
TAP	58	96	1
TAP	58	192	0
TAP	58	192	1
TAP	59	0	2
TAP	59	96	2
TAP	59	192	3
TAP	59	288	3
HLD	60	0	3	144
HLD	60	0	4	144
TAP	61	0	3
TAP	61	96	3
TAP	61	192	2
TAP	61	288	2
TAP	62	0	1
TAP	62	96	1
TAP	62	192	0
TAP	62	192	1
TAP	63	0	7
TAP	63	96	7
TAP	63	192	6
TAP	63	288	6
TAP	64	0	5
TAP	64	96	5
TAP	64	192	4
TAP	64	192	5
TAP	65	0	3
TAP	65	96	3
TAP	65	192	4
TAP	65	288	4
TAP	66	0	5
TAP	66	96	5
TAP	66	192	6
TAP	66	192	7
TAP	67	0	0
TAP	67	96	0
TAP	67	192	0
TAP	67	192	7
XTP	68	0	0
XTP	68	0	1
XTP	68	96	0
XTP	68	96	1
XTP	68	192	6
XTP	68	192	7
BRK	68	288	6
BRK	68	288	7
TAP	69	0	0
TAP	69	96	0
TAP	69	192	0
TAP	70	0	1
TAP	70	96	1
TAP	70	192	1
TAP	71	0	2
TAP	71	96	2
TAP	71	192	3
TAP	71	288	3
HLD	72	0	3	288
HLD	72	0	4	288
TAP	73	0	4
TAP	73	96	4
TAP	73	192	4
TAP	74	0	5
TAP	74	96	5
TAP	74	192	5
TAP	75	0	6
TAP	75	96	6
TAP	75	192	6
HLD	76	0	7	192
HLD	77	0	0	192
XTP	77	288	0
XTP	77	288	7

T_REC_TAP	137
T_REC_BRK	4
T_REC_XTP	18
T_REC_HLD	12
T_REC_XHO	6
T_REC_STR	1
T_REC_BST	0
T_REC_XST	0
T_REC_TTP	14
T_REC_THO	2
T_REC_SLD	1
T_REC_ALL	195
T_NUM_TAP	170
T_NUM_BRK	4
T_NUM_HLD	20
T_NUM_SLD	1
T_NUM_ALL	195
T_JUDGE_TAP	174
T_JUDGE_HLD	87
T_JUDGE_SLD	1
T_JUDGE_ALL	262
TTM_EACHPAIRS	31
TTM_SCR_TAP	85000
TTM_SCR_BRK	10400
TTM_SCR_HLD	20000
TTM_SCR_SLD	1500
TTM_SCR_ALL	116900
TTM_SCR_S	113050
TTM_SCR_SS	116500
TTM_RAT_ACV	10034

