VERSION	0.00.00	1.03.00
FES_MODE	0
BPM_DEF	208.000	208.000	208.000	208.000
MET_DEF	4	4
RESOLUTION	384
CLK_DEF	384
COMPATIBLE_CODE	MA2

BPM	0	0	208.000
MET	0	0	4	4

HLD	1	0	2	192
HLD	1	0	3	1344
HLD	2	0	4	192
HLD	3	0	2	192
HLD	4	0	4	1152
HLD	5	0	5	192
HLD	6	0	3	192
HLD	7	0	5	256
TAP	7	192	3
TAP	7	256	3
XTP	7	352	1
XTP	7	352	6
TAP	8	64	2
TAP	8	96	4
TAP	8	160	5
TAP	8	192	3
TAP	8	256	4
TAP	8	288	2
TAP	8	288	4
TAP	9	0	1
TAP	9	0	5
STR	9	96	1
SI_	9	96	1	96	96	3
TAP	9	96	5
TAP	9	192	5
TAP	9	288	5
TAP	10	0	4
TAP	10	0	5
STR	10	96	4
SI_	10	96	4	96	96	0
TAP	10	96	5
TAP	10	192	5
TAP	10	288	5
TAP	11	0	1
TAP	11	0	5
STR	11	96	1
SI_	11	96	1	96	96	3
TAP	11	96	5
TAP	11	192	5
TAP	11	288	5
TAP	12	0	4
TAP	12	0	5
STR	12	96	4
SI_	12	96	4	96	96	0
TAP	12	96	5
TAP	12	192	5
TAP	12	288	5
TAP	13	0	1
TAP	13	0	5
TAP	13	96	1
STR	13	96	5
SI_	13	96	5	96	96	3
TAP	13	192	1
TAP	13	288	1
TAP	14	0	1
TAP	14	0	2
TAP	14	96	1
STR	14	96	2
SI_	14	96	2	96	96	6
TAP	14	192	1
TAP	14	288	1
TAP	15	0	1
TAP	15	0	5
TAP	15	96	2
TAP	15	96	6
TAP	15	192	3
TAP	15	192	4
TAP	15	256	4
TAP	15	288	3
HLD	15	352	2	96
HLD	15	352	5	96
TAP	16	96	2
TAP	16	96	5
XTP	16	192	3
XTP	16	192	4
TAP	17	0	3
TAP	17	0	5
TAP	17	96	2
STR	17	96	4
SI_	17	96	4	96	96	2
HLD	17	192	1	480
STR	18	0	0
SI_	18	0	0	96	96	3
TAP	18	288	3
TAP	19	0	3
TAP	19	0	4
STR	19	96	4
SI_	19	96	4	96	96	1
TAP	19	96	5
HLD	19	192	6	480
TTP	20	0	0	B	0	M1
TTP	20	0	1	B	0	M1
TTP	20	96	4	B	0	M1
TTP	20	96	5	B	0	M1
TAP	20	288	7
TAP	21	0	0
TAP	21	0	6
TAP	21	96	1
STR	21	96	7
SI_	21	96	7	96	96	1
HLD	21	192	2	480
STR	22	0	3
SI_	22	0	3	96	96	0
TAP	22	288	0
TAP	23	0	1
TAP	23	0	3
TAP	23	64	2
TAP	23	96	4
TAP	23	160	5
TAP	23	192	3
TAP	23	256	2
STR	23	288	4
SCR	23	288	4	96	240	3
TAP	23	352	4
TAP	24	0	3
TTP	24	192	0	C	0	M1
TAP	25	0	1
TAP	25	0	7
STR	25	96	3
SI_	25	96	3	96	96	5
TAP	25	96	5
HLD	25	192	6	192
STR	26	0	7
SI_	26	0	7	96	96	1
HLD	26	96	5	192
HLD	26	288	2	288
TAP	27	0	1
TAP	27	96	3
TAP	27	192	5
HLD	27	288	3	480
TAP	27	288	4
TTP	28	0	5	B	0	M1
TTP	28	0	6	B	0	M1
TTP	28	96	4	E	0	M1
TTP	28	192	1	B	0	M1
TTP	28	192	2	B	0	M1
TTP	28	288	0	E	0	M1
TAP	29	0	4
STR	29	96	4
SI_	29	96	4	96	96	1
TAP	29	96	5
HLD	29	192	6	192
STR	30	0	7
SI_	30	0	7	96	96	3
TAP	30	96	0
TAP	30	288	2
TAP	30	288	5
TAP	31	0	6
TAP	31	64	6
TAP	31	96	4
TAP	31	160	4
TAP	31	192	3
TAP	31	256	3
TAP	31	288	1
TAP	31	352	1
XTP	32	0	7
XTP	32	96	6
XTP	32	192	5
XTP	32	288	4
HLD	33	0	2	96
HLD	33	96	3	96
HLD	33	192	1	96
HLD	33	288	0	96
STR	34	0	3
SI_	34	0	3	96	192	0
HLD	34	192	7	96
STR	35	0	0
SI_	35	0	0	96	192	3
HLD	35	0	6	96
HLD	35	192	5	96
THO	36	0	0	192	C	0	M1
STR	37	0	1
SI_	37	0	1	96	192	4
TAP	37	0	6
TAP	37	96	5
TAP	37	192	6
TAP	37	288	7
TAP	38	0	3
STR	38	0	6
SI_	38	0	6	96	192	3
TAP	38	96	2
TAP	38	192	1
TAP	38	288	0
TTP	39	0	2	E	0	M1
TTP	39	0	2	B	0	M1
TTP	39	96	0	B	0	M1
TTP	39	96	0	E	0	M1
TTP	39	192	3	B	0	M1
TTP	39	192	4	E	0	M1
TTP	39	288	6	B	0	M1
TTP	39	288	6	E	0	M1
TTP	40	0	0	C	1	M1
XTP	40	192	0
XTP	40	192	7
XTP	40	288	2
XTP	40	288	5
STR	41	0	3
SI_	41	0	3	96	48	7
TAP	41	0	4
TAP	41	96	6
STR	41	192	3
SCL	41	192	3	96	48	0
TAP	41	192	5
TAP	41	288	7
STR	42	0	3
SI_	42	0	3	96	48	7
TAP	42	0	4
TAP	42	96	6
STR	42	192	3
SCL	42	192	3	96	48	0
TAP	42	192	5
TAP	42	288	7
TAP	43	0	3
STR	43	0	4
SI_	43	0	4	96	48	0
TAP	43	96	1
TAP	43	192	2
STR	43	192	4
SCR	43	192	4	96	48	7
TAP	43	288	0
XTP	44	0	2
XTP	44	0	5
TAP	44	64	3
TAP	44	96	4
TAP	44	128	3
TAP	44	160	4
TAP	44	192	3
TAP	44	224	2
TAP	44	256	1
TAP	44	288	0
TAP	44	288	7
TAP	44	320	6
TAP	44	352	5
STR	45	0	3
SI_	45	0	3	96	48	7
TAP	45	0	4
TAP	45	96	6
STR	45	192	3
SCL	45	192	3	96	48	0
TAP	45	192	5
TAP	45	288	7
TAP	46	0	3
STR	46	0	4
SI_	46	0	4	96	48	0
TAP	46	96	1
TAP	46	192	2
STR	46	192	4
SCR	46	192	4	96	48	7
STR	46	288	0
SCR	46	288	0	96	48	3
TAP	47	0	4
TTP	47	96	0	C	1	M1
TTP	47	96	2	B	0	M1
TTP	47	96	6	B	0	M1
XTP	47	288	0
XTP	47	288	7
TAP	47	352	6
TAP	48	0	0
TAP	48	0	5
TAP	48	64	3
TAP	48	96	2
TAP	48	96	7
BRK	48	192	1
BRK	48	192	5
TAP	49	0	4
STR	49	0	6
SI_	49	0	6	96	48	4
TAP	49	96	2
TAP	49	192	0
STR	49	192	3
SI_	49	192	3	96	48	7
TAP	49	288	2
TAP	50	0	4
STR	50	0	6
SI_	50	0	6	96	48	4
TAP	50	96	2
TAP	50	192	0
STR	50	192	3
SI_	50	192	3	96	48	7
TAP	50	288	2
TAP	51	0	4
STR	51	0	6
SI_	51	0	6	96	48	4
TAP	51	96	2
TAP	51	192	0
STR	51	192	3
SI_	51	192	3	96	48	7
TAP	51	288	2
TAP	52	0	4
XHO	52	0	6	96
HLD	52	96	5	96
HLD	52	192	4	96
TAP	52	288	3
STR	53	0	1
SI_	53	0	1	96	48	3
TAP	53	0	3
TAP	53	96	5
STR	53	192	4
SI_	53	192	4	96	48	0
TAP	53	192	7
TAP	53	288	5
STR	54	0	1
SI_	54	0	1	96	48	3
TAP	54	0	3
TAP	54	96	5
STR	54	192	4
SI_	54	192	4	96	48	0
TAP	54	192	7
TAP	54	288	5
XTP	55	0	1
XTP	55	0	3
XTP	55	96	3
XTP	55	96	5
XTP	55	192	0
XTP	55	192	7
XST	55	264	1
SCR	55	264	1	96	184	6
XTP	55	264	6
TTP	56	0	0	C	1	M1
TAP	57	0	4
TAP	57	0	6
STR	57	96	4
SCL	57	96	4	96	96	2
TAP	57	96	6
TAP	57	192	6
TAP	57	288	6
TAP	58	0	1
TAP	58	0	6
STR	58	96	1
SCR	58	96	1	96	120	4
TAP	58	96	6
TAP	58	192	6
TAP	58	288	6
TAP	59	0	5
TAP	59	0	6
STR	59	96	5
SCL	59	96	5	96	144	1
TAP	59	96	6
TAP	59	192	6
TAP	59	288	6
TAP	60	0	0
TAP	60	0	6
STR	60	96	0
SUR	60	96	0	96	96	4
TAP	60	96	6
TAP	60	192	6
TAP	60	288	6
HLD	61	0	3	96
HLD	61	0	5	480
HLD	61	192	4	96
HLD	62	0	2	288
HLD	62	192	3	96
TAP	63	0	1
TAP	63	0	4
TAP	63	64	3
TAP	63	96	4
TAP	63	192	3
TAP	63	192	6
TAP	63	256	4
TAP	63	288	3
TAP	64	0	1
TAP	64	64	1
TAP	64	96	3
TAP	64	160	3
TAP	64	192	4
TAP	64	288	3
TAP	64	288	5
TAP	65	0	3
TAP	65	0	4
TAP	65	64	6
TAP	65	96	4
TAP	65	128	5
TAP	65	160	4
TAP	65	192	6
TAP	65	224	3
TAP	65	256	4
STR	65	288	2
SI_	65	288	2	96	48	4
HLD	66	0	6	288
TAP	66	288	5
TAP	67	0	3
TAP	67	0	4
TAP	67	64	1
TAP	67	96	3
TAP	67	128	2
TAP	67	160	3
TAP	67	192	1
TAP	67	224	4
TAP	67	256	3
STR	67	288	5
SI_	67	288	5	96	48	3
HLD	68	0	1	288
TAP	68	288	2
TAP	69	0	3
TAP	69	0	4
TAP	69	64	2
TAP	69	96	0
TAP	69	128	1
TAP	69	160	0
TAP	69	192	2
TAP	69	224	7
TAP	69	256	0
STR	69	288	6
SI_	69	288	6	96	48	1
HLD	70	0	2	288
HLD	70	288	4	480
THO	71	0	0	384	C	1	M1
BRK	72	192	0
BRK	72	192	7
TAP	73	0	1
TAP	73	0	3
TAP	73	96	2
TAP	73	96	4
TAP	73	160	3
TAP	73	192	4
TAP	73	288	3
TAP	73	288	5
TAP	74	0	4
TAP	74	0	6
TAP	74	96	3
TAP	74	96	5
TAP	74	160	4
TAP	74	192	3
TAP	74	288	2
TAP	74	288	3
TAP	75	0	1
TAP	75	0	4
TAP	75	96	2
TAP	75	96	3
TAP	75	160	4
TAP	75	192	3
TAP	75	288	3
TAP	75	288	4
TAP	76	0	5
TAP	76	24	4
TAP	76	48	5
TAP	76	72	4
BRK	76	96	6
TAP	76	192	2
TAP	76	216	3
TAP	76	240	2
TAP	76	264	3
BRK	76	288	1
TAP	77	0	3
TAP	77	0	4
TAP	77	96	4
TAP	77	96	5
TAP	77	160	6
HLD	77	192	6	96
TAP	77	288	7
TAP	78	0	0
TAP	78	0	7
TAP	78	96	0
TAP	78	96	1
TAP	78	160	2
HLD	78	192	2	96
TAP	78	288	3
TAP	79	0	3
TAP	79	0	4
TAP	79	64	5
TAP	79	96	4
TAP	79	160	2
TAP	79	192	3
TAP	79	256	6
TAP	79	288	4
HLD	79	352	1	224
XTP	80	0	3
XTP	80	96	4
XTP	80	192	5
XTP	80	288	6
HLD	81	0	1	96
HLD	81	96	0	96
HLD	81	192	2	96
HLD	81	288	3	96
HLD	82	0	0	288
TTP	82	192	4	E	0	M1
TTP	82	288	0	C	0	M1
HLD	83	0	7	384
TTP	83	96	0	E	0	M1
TTP	83	192	0	C	0	M1
TTP	83	288	4	E	0	M1
THO	84	0	0	192	C	0	M1
STR	85	0	2
SI_	85	0	2	96	192	7
TAP	85	0	6
TAP	85	96	7
TAP	85	192	5
TAP	85	288	4
TAP	86	0	0
STR	86	0	5
SI_	86	0	5	96	192	0
TAP	86	96	1
TAP	86	192	3
TAP	86	288	2
TTP	87	0	1	E	0	M1
TTP	87	0	1	B	0	M1
TTP	87	96	5	B	0	M1
TTP	87	96	6	E	0	M1
TTP	87	192	0	B	0	M1
TTP	87	192	0	E	0	M1
TTP	87	288	3	B	0	M1
TTP	87	288	4	E	0	M1
TTP	88	0	0	C	0	M1
TTP	88	0	2	E	0	M1
TTP	88	0	6	E	0	M1
STR	89	0	3
SI_	89	0	3	96	384	0
STR	90	0	4
SI_	90	0	4	96	384	7
STR	91	0	3
SI_	91	0	3	96	384	0
STR	92	0	4
SI_	92	0	4	96	384	7
STR	93	0	3
SCL	93	0	3	96	384	0
TAP	93	192	5
STR	94	0	4
SCR	94	0	4	96	384	7
TAP	94	192	2
STR	95	0	3
SCL	95	0	3	96	384	0
TAP	95	192	6
THO	96	0	0	192	C	0	M1
STR	97	0	7
SCL	97	0	7	96	384	4
TTP	97	192	2	B	0	M1
TTP	97	288	1	B	0	M1
STR	98	0	0
SCR	98	0	0	96	384	3
TTP	98	192	5	B	0	M1
TTP	98	288	6	B	0	M1
STR	99	0	7
SCL	99	0	7	96	384	4
TTP	99	192	2	B	0	M1
TTP	99	288	1	B	0	M1
STR	100	0	0
SCR	100	0	0	96	384	3
TTP	100	192	6	B	0	M1
TTP	100	288	5	B	0	M1
STR	101	0	4
SCR	101	0	4	96	384	7
TTP	101	192	1	B	0	M1
TTP	101	288	2	B	0	M1
STR	102	0	3
SCL	102	0	3	96	384	0
TTP	102	192	6	B	0	M1
TTP	102	288	5	B	0	M1
HLD	103	0	4	576
TTP	103	192	1	B	0	M1
TTP	103	288	2	B	0	M1
HLD	104	0	3	576
BRK	106	0	3
STR	106	0	4
SI_	106	0	4	96	48	0
TAP	106	96	1
TAP	106	192	2
STR	106	192	4
SCR	106	192	4	96	48	7
TAP	106	256	0
TAP	106	288	0
TAP	107	0	3
STR	107	0	4
SI_	107	0	4	96	48	0
TAP	107	96	1
TAP	107	192	2
STR	107	192	4
SCR	107	192	4	96	48	7
TAP	107	256	0
TAP	107	288	0
STR	108	0	3
SI_	108	0	3	96	48	7
TAP	108	0	4
TAP	108	96	6
STR	108	192	3
SCL	108	192	3	96	48	0
TAP	108	192	5
TAP	108	256	7
TAP	108	288	7
XTP	109	0	2
XTP	109	0	5
TAP	109	64	4
TAP	109	96	3
TAP	109	128	4
TAP	109	160	3
TAP	109	192	4
TAP	109	224	5
TAP	109	256	6
TAP	109	288	0
TAP	109	288	7
TAP	109	320	1
TAP	109	352	2
XTP	110	0	3
STR	110	0	4
SI_	110	0	4	96	48	0
TAP	110	96	1
TAP	110	192	2
STR	110	192	4
SCR	110	192	4	96	48	7
TAP	110	256	0
TAP	110	288	0
STR	111	0	3
SI_	111	0	3	96	48	7
TAP	111	0	4
TAP	111	96	6
STR	111	192	3
SCL	111	192	3	96	48	0
TAP	111	192	5
TAP	111	256	7
STR	111	288	7
SCL	111	288	7	96	48	4
TAP	112	0	3
TTP	112	96	0	C	1	M1
TTP	112	96	1	B	0	M1
TTP	112	96	5	B	0	M1
XTP	112	288	0
XTP	112	288	7
TAP	112	352	6
TAP	113	0	0
TAP	113	0	5
TAP	113	64	2
TAP	113	96	1
TAP	113	96	4
BRK	113	192	2
BRK	113	192	6
STR	114	0	1
SCR	114	0	1	96	48	3
XTP	114	0	3
TAP	114	96	5
STR	114	192	4
SUL	114	192	4	96	48	0
TAP	114	192	7
TAP	114	288	5
STR	115	0	1
SCR	115	0	1	96	64	3
TAP	115	0	3
TAP	115	96	5
STR	115	192	4
SUL	115	192	4	96	48	0
TAP	115	192	7
TAP	115	288	5
XTP	116	0	1
XTP	116	0	6
STR	116	96	2
SI_	116	96	2	96	64	7
XTP	116	96	5
TAP	116	192	7
XST	116	256	6
SI_	116	256	6	96	64	3
TAP	116	352	2
XST	117	0	2
SCL	117	0	2	96	64	7
TAP	117	96	7
XHO	117	160	6	128
XTP	117	256	0
BRK	117	288	0
STR	118	0	7
SCL	118	0	7	96	96	4
STR	118	96	4
SUL	118	96	4	96	192	3
TTP	118	192	0	C	1	M1
STR	119	0	0
SCR	119	0	0	96	96	3
STR	119	96	3
SUR	119	96	3	96	192	4
TTP	119	192	0	C	1	M1
XTP	120	0	7
XTP	120	96	4
XTP	120	96	6
XTP	120	192	2
XHO	120	256	1	128
XTP	120	256	3
BRK	121	0	7
TAP	121	96	1
TAP	121	96	3
TAP	121	160	3
TAP	121	192	4
TAP	121	288	4
STR	121	288	6
SCL	121	288	6	96	192	1
TTP	122	0	0	C	1	M1
TAP	123	0	0
TAP	123	0	7
TAP	123	64	1
TAP	123	96	3
TAP	123	160	2
TAP	123	192	5
TAP	123	256	6
TAP	123	288	4
TAP	123	352	7
TAP	124	0	0
TAP	124	64	1
TAP	124	96	3
TAP	124	160	2
TAP	124	192	5
TAP	124	256	6
TAP	124	288	4
TAP	124	352	7
TAP	125	0	0
TAP	125	64	1
TAP	125	96	3
TAP	125	160	4
TAP	125	192	3
TAP	125	256	2
TAP	125	256	5
XTP	125	288	2
XTP	125	288	5
XTP	126	0	3
XTP	126	0	4
XTP	126	96	2
XHO	126	96	5	768
TTP	126	288	5	B	0	M1
TTP	126	288	6	B	0	M1
TTP	127	96	2	B	0	M1
TTP	127	96	3	B	0	M1
TAP	127	288	4
TAP	128	0	3
HLD	128	96	2	576
TTP	128	288	1	B	0	M1
TTP	128	288	2	E	0	M1
TTP	128	288	2	B	0	M1
TTP	129	96	4	B	0	M1
TTP	129	96	5	E	0	M1
TTP	129	96	5	B	0	M1
THO	129	288	0	64	C	0	M1

T_REC_TAP	365
T_REC_BRK	11
T_REC_XTP	47
T_REC_HLD	48
T_REC_XHO	4
T_REC_STR	84
T_REC_BST	0
T_REC_XST	3
T_REC_TTP	70
T_REC_THO	5
T_REC_SLD	87
T_REC_ALL	724
T_NUM_TAP	569
T_NUM_BRK	11
T_NUM_HLD	57
T_NUM_SLD	87
T_NUM_ALL	724
T_JUDGE_TAP	580
T_JUDGE_HLD	321
T_JUDGE_SLD	87
T_JUDGE_ALL	988
TTM_EACHPAIRS	132
TTM_SCR_TAP	284500
TTM_SCR_BRK	28600
TTM_SCR_HLD	57000
TTM_SCR_SLD	130500
TTM_SCR_ALL	500600
TTM_SCR_S	484550
TTM_SCR_SS	499500
TTM_RAT_ACV	10022

