VERSION	0.00.00	1.03.00
FES_MODE	0
BPM_DEF	208.000	208.000	208.000	208.000
MET_DEF	4	4
RESOLUTION	384
CLK_DEF	384
COMPATIBLE_CODE	MA2

BPM	0	0	208.000
MET	0	0	4	4

HLD	5	0	1	192
HLD	5	0	4	960
HLD	6	0	2	192
HLD	7	0	3	192
XTP	7	336	3
XTP	7	336	4
XTP	8	96	3
XTP	8	96	4
XTP	8	192	2
XTP	8	192	5
TAP	9	0	2
TAP	9	96	2
TAP	9	192	2
TAP	9	192	3
TAP	9	288	2
TAP	10	0	5
TAP	10	96	5
TAP	10	192	4
TAP	10	192	5
TAP	10	288	5
TAP	11	0	2
TAP	11	96	2
TAP	11	192	2
TAP	11	192	3
TAP	11	288	2
TAP	12	0	4
TAP	12	96	5
TAP	12	192	3
TAP	12	192	5
TAP	13	0	6
TAP	13	96	6
TAP	13	192	4
TAP	13	192	6
TAP	13	288	6
TAP	14	0	3
TAP	14	96	3
TAP	14	192	3
TAP	14	192	4
TAP	14	288	3
HLD	15	0	3	96
HLD	15	0	4	96
XTP	15	192	3
XTP	15	192	4
XTP	15	264	3
XTP	15	264	4
XHO	15	360	2	120
XHO	15	360	5	120
XTP	16	192	3
XTP	16	192	4
TAP	17	0	3
HLD	17	0	4	192
TAP	17	96	3
HLD	17	192	2	192
TAP	18	0	3
TAP	18	96	1
HLD	18	96	3	192
TAP	18	288	2
HLD	19	0	3	192
TAP	19	0	4
TAP	19	96	4
HLD	19	192	5	192
TAP	20	0	4
TAP	20	96	4
TAP	20	96	6
TAP	20	288	2
TAP	20	288	3
HLD	21	0	3	192
TAP	21	0	4
TAP	21	96	4
HLD	21	192	5	192
TAP	22	0	4
TAP	22	96	4
HLD	22	96	6	192
TAP	22	288	4
TAP	23	0	3
TAP	23	96	2
TAP	23	192	1
TAP	23	192	6
STR	24	0	0
SI_	24	0	0	96	144	3
STR	24	0	7
SI_	24	0	7	96	144	4
HLD	25	0	4	192
TAP	25	0	5
TAP	25	96	5
HLD	25	192	6	192
TAP	26	0	5
HLD	26	96	4	192
TAP	26	96	5
TAP	26	288	5
TAP	27	0	6
TAP	27	96	6
TAP	27	192	5
TAP	27	288	4
STR	27	288	5
SI_	27	288	5	96	192	0
TAP	29	0	2
TAP	29	96	2
HLD	29	192	1	192
TAP	29	192	3
TAP	30	0	2
TAP	30	96	1
HLD	30	96	3	192
TAP	30	288	2
TAP	31	0	4
TAP	31	96	4
TAP	31	192	2
TAP	31	192	5
TAP	31	288	2
TAP	31	288	5
XTP	32	0	1
XTP	32	96	0
XTP	32	192	7
XTP	32	288	6
TAP	33	0	1
STR	33	0	5
SCL	33	0	5	96	192	2
TTP	34	0	1	E	0	M1
TTP	34	0	1	B	0	M1
TTP	34	192	6	B	0	M1
TTP	34	192	7	E	0	M1
STR	35	0	0
SCR	35	0	0	96	192	3
TAP	35	0	5
TTP	36	0	4	B	0	M1
TTP	36	0	5	E	0	M1
TTP	36	192	7	B	0	M1
TTP	36	192	7	E	0	M1
TAP	37	0	0
STR	37	0	1
SCR	37	0	1	96	192	4
STR	38	0	6
SCL	38	0	6	96	192	3
TAP	38	0	7
TTP	39	0	1	E	0	M1
TTP	39	96	4	B	0	M1
TTP	39	192	3	B	0	M1
TTP	39	288	7	E	0	M1
TTP	40	0	0	C	1	M1
XTP	40	192	0
XTP	40	192	7
TAP	41	0	2
TAP	41	0	3
TAP	41	96	1
TAP	41	192	2
TAP	41	192	3
TAP	41	288	1
TAP	42	0	3
TAP	42	0	4
TAP	42	96	6
TAP	42	192	3
TAP	42	192	4
TAP	42	288	1
TAP	43	0	4
TAP	43	0	5
TAP	43	96	6
TAP	43	192	4
TAP	43	192	5
HLD	43	288	6	96
HLD	44	0	5	96
HLD	44	96	4	96
TAP	44	192	3
TAP	44	288	2
TAP	45	0	1
TAP	45	0	4
TAP	45	96	0
TAP	45	192	1
TAP	45	192	3
TAP	45	288	0
TAP	46	0	3
TAP	46	0	6
TAP	46	96	7
TAP	46	192	4
TAP	46	192	6
TAP	46	288	7
TAP	47	0	3
TAP	47	0	4
BRK	47	96	1
BRK	47	96	6
XTP	47	288	4
XTP	47	288	5
XTP	48	0	3
XTP	48	0	4
XST	48	96	2
SCL	48	96	2	96	96	7
XST	48	96	3
SCR	48	96	3	96	96	6
TTP	49	0	7	E	0	M1
TTP	49	96	0	C	0	M1
TTP	49	192	3	E	0	M1
TTP	49	288	2	E	0	M1
TTP	50	0	1	E	0	M1
TTP	50	96	0	C	0	M1
TTP	50	192	5	E	0	M1
TTP	50	288	6	E	0	M1
TAP	51	0	1
TAP	51	0	7
TAP	51	96	1
STR	51	96	7
SCL	51	96	7	96	288	1
XTP	51	192	0
XTP	52	192	6
XTP	52	192	7
TTP	53	0	5	E	0	M1
TTP	53	96	0	C	0	M1
TTP	53	192	1	E	0	M1
TTP	53	288	2	E	0	M1
TTP	54	0	3	E	0	M1
TTP	54	96	0	C	0	M1
TTP	54	192	7	E	0	M1
TTP	54	288	6	E	0	M1
XTP	55	0	0
XTP	55	0	7
XTP	55	96	1
XTP	55	96	6
XTP	55	192	2
XTP	55	192	5
XTP	55	264	2
XTP	55	264	5
TTP	56	0	0	C	1	M1
TTP	56	0	1	B	0	M1
TTP	56	0	6	B	0	M1
HLD	57	0	2	384
TAP	57	96	3
TAP	57	192	3
TAP	57	288	3
HLD	58	0	4	384
TAP	58	96	3
TAP	58	192	3
HLD	59	0	1	384
TAP	59	96	3
TAP	59	192	3
TAP	59	288	3
HLD	60	0	5	480
TAP	60	96	3
TAP	60	192	3
HLD	61	0	2	96
HLD	61	192	1	96
HLD	61	192	3	96
HLD	62	0	3	96
HLD	62	0	4	96
HLD	62	192	4	96
HLD	62	192	6	96
TAP	63	0	3
TAP	63	0	4
TAP	63	96	2
TAP	63	192	1
TAP	63	288	0
TAP	64	0	0
TAP	64	0	7
TAP	64	96	6
XTP	64	192	2
XTP	64	192	5
TAP	65	0	2
HLD	65	0	3	192
TAP	65	96	2
HLD	65	192	1	192
STR	65	288	2
SI_	65	288	2	96	144	5
TAP	66	288	3
TAP	66	288	4
HLD	67	0	4	192
TAP	67	0	5
TAP	67	96	5
HLD	67	192	6	192
STR	67	288	5
SI_	67	288	5	96	144	2
TAP	68	288	0
TAP	68	288	7
HLD	69	0	0	192
TAP	69	0	1
TAP	69	96	1
HLD	69	192	2	192
STR	69	288	1
SI_	69	288	1	96	144	6
TAP	70	288	2
TAP	70	288	5
THO	71	0	0	384	C	1	M1
BRK	72	192	0
BRK	72	192	7
HLD	73	0	1	384
TAP	73	96	3
TAP	73	192	3
TAP	73	288	3
HLD	74	0	2	384
TAP	74	96	1
TAP	74	192	1
TAP	74	288	1
HLD	75	0	3	288
TAP	75	96	4
TAP	75	192	4
TAP	75	288	4
TAP	76	0	2
TAP	76	48	2
TAP	76	96	2
TAP	76	96	3
TAP	76	192	5
TAP	76	240	5
TAP	76	288	4
TAP	76	288	5
HLD	77	0	6	384
TAP	77	96	7
TAP	77	192	7
TAP	77	288	7
HLD	78	0	4	288
TAP	78	96	5
TAP	78	192	5
TAP	78	288	5
XTP	79	0	2
XTP	79	0	4
XTP	79	96	1
XTP	79	96	5
XTP	79	192	0
XTP	79	192	6
XTP	79	288	1
XTP	79	288	7
XTP	80	0	2
XTP	80	0	6
XTP	80	96	3
XTP	80	96	5
XTP	80	192	4
XTP	80	288	3
STR	81	0	2
SCL	81	0	2	96	192	7
HLD	81	0	4	192
TTP	82	0	5	B	0	M1
TTP	82	0	6	B	0	M1
TTP	82	192	2	B	0	M1
TTP	82	192	3	B	0	M1
HLD	83	0	4	192
STR	83	0	5
SCR	83	0	5	96	192	0
TTP	84	0	2	B	0	M1
TTP	84	0	3	B	0	M1
TTP	84	192	5	B	0	M1
TTP	84	192	6	B	0	M1
STR	85	0	1
SCL	85	0	1	96	192	6
HLD	85	0	3	192
HLD	86	0	0	192
STR	86	0	5
SCL	86	0	5	96	192	2
TTP	87	0	2	B	0	M1
TTP	87	96	0	B	0	M1
TTP	87	192	4	B	0	M1
TTP	87	288	6	E	0	M1
TTP	88	0	0	C	0	M1
TTP	88	0	1	B	0	M1
TTP	88	0	7	B	0	M1
STR	89	0	7
SI_	89	0	7	96	384	4
STR	90	0	0
SI_	90	0	0	96	384	3
STR	91	0	7
SI_	91	0	7	96	384	4
STR	92	0	0
SI_	92	0	0	96	384	3
STR	93	0	7
SCL	93	0	7	96	384	4
STR	94	0	0
SCR	94	0	0	96	384	3
STR	95	0	7
SCL	95	0	7	96	384	4
THO	96	0	0	192	C	0	M1
STR	97	0	7
SCR	97	0	7	96	384	2
STR	98	0	3
SCR	98	0	3	96	384	6
STR	99	0	7
SCR	99	0	7	96	384	2
STR	100	0	3
SCR	100	0	3	96	384	6
STR	101	0	4
SCL	101	0	4	96	384	1
STR	102	0	0
SCL	102	0	0	96	384	5
STR	103	0	4
SCL	103	0	4	96	384	1
THO	104	0	0	384	C	0	M1
XHO	106	0	4	96
BRK	106	0	5
TAP	106	96	7
TAP	106	192	4
HLD	106	192	5	96
TAP	106	288	0
HLD	107	0	3	96
TAP	107	0	4
TAP	107	96	7
TAP	107	192	3
HLD	107	192	4	96
TAP	107	288	0
HLD	108	0	2	96
TAP	108	0	3
TAP	108	96	7
TAP	108	192	2
TAP	108	192	3
HLD	108	288	0	96
HLD	109	0	2	96
HLD	109	96	3	96
TAP	109	192	4
TAP	109	288	4
HLD	110	0	3	96
TAP	110	0	5
TAP	110	96	7
TAP	110	192	3
HLD	110	192	5	96
TAP	110	288	0
HLD	111	0	2	96
TAP	111	0	4
TAP	111	96	0
TAP	111	192	2
HLD	111	192	4	96
TAP	111	288	7
TAP	112	0	3
TAP	112	0	4
BRK	112	96	1
BRK	112	96	6
XTP	112	288	2
XTP	112	288	3
XTP	113	0	3
XTP	113	0	4
XST	113	96	4
SCL	113	96	4	96	96	1
XST	113	96	5
SCR	113	96	5	96	96	0
TTP	114	0	1	E	0	M1
TTP	114	96	0	C	0	M1
TTP	114	192	5	E	0	M1
TTP	114	288	6	E	0	M1
TTP	115	0	7	E	0	M1
TTP	115	96	0	C	0	M1
TTP	115	192	3	E	0	M1
TTP	115	288	2	E	0	M1
TAP	116	0	0
TAP	116	0	6
STR	116	96	0
SCR	116	96	0	96	288	6
TAP	116	96	6
BRK	116	192	7
XTP	117	192	0
XTP	117	192	1
XTP	118	0	1
XTP	118	0	4
XST	118	96	1
SCR	118	96	1	96	96	4
XTP	118	96	4
BRK	118	192	6
XTP	119	0	2
XTP	119	0	7
XTP	119	96	2
XST	119	96	7
SCL	119	96	7	96	96	4
BRK	119	192	0
XTP	120	0	1
XTP	120	0	3
XTP	120	96	3
XTP	120	96	4
XTP	120	192	4
XTP	120	192	6
XTP	120	264	4
XST	120	264	6
SCL	120	264	6	96	216	1
TTP	121	0	0	C	1	M1
TAP	122	0	0
TAP	122	96	4
HLD	122	192	1	96
TAP	122	192	3
TAP	122	288	2
TAP	123	0	0
TAP	123	96	4
HLD	123	192	1	96
TAP	123	192	3
TAP	123	288	2
TAP	124	0	7
TAP	124	96	3
TAP	124	192	4
HLD	124	192	6	96
TAP	124	288	5
TAP	125	0	7
TAP	125	96	3
TAP	125	192	4
HLD	125	192	6	96
TAP	125	288	5
TAP	126	0	2
TAP	126	0	4
XTP	126	96	2
XTP	126	96	4
TTP	126	288	1	B	0	M1
TTP	126	288	3	B	0	M1
TTP	127	96	4	B	0	M1
TTP	127	96	6	B	0	M1
TTP	127	288	0	E	0	M1
TTP	127	288	1	B	0	M1
TTP	128	96	0	B	0	M1
TTP	128	96	5	B	0	M1
TTP	128	288	3	E	0	M1
TTP	128	288	6	B	0	M1
TTP	129	96	2	B	0	M1
TTP	129	96	4	E	0	M1
THO	129	288	0	72	C	0	M1
TTP	129	288	1	B	0	M1
TTP	129	288	6	B	0	M1

T_REC_TAP	208
T_REC_BRK	10
T_REC_XTP	70
T_REC_HLD	63
T_REC_XHO	3
T_REC_STR	30
T_REC_BST	0
T_REC_XST	7
T_REC_TTP	70
T_REC_THO	4
T_REC_SLD	37
T_REC_ALL	502
T_NUM_TAP	385
T_NUM_BRK	10
T_NUM_HLD	70
T_NUM_SLD	37
T_NUM_ALL	502
T_JUDGE_TAP	395
T_JUDGE_HLD	278
T_JUDGE_SLD	37
T_JUDGE_ALL	710
TTM_EACHPAIRS	115
TTM_SCR_TAP	192500
TTM_SCR_BRK	26000
TTM_SCR_HLD	70000
TTM_SCR_SLD	55500
TTM_SCR_ALL	344000
TTM_SCR_S	332750
TTM_SCR_SS	343000
TTM_RAT_ACV	10029

