VERSION	0.00.00	1.03.00
FES_MODE	0
BPM_DEF	208.000	208.000	208.000	208.000
MET_DEF	4	4
RESOLUTION	384
CLK_DEF	384
COMPATIBLE_CODE	MA2

BPM	0	0	208.000
MET	0	0	4	4

HLD	5	0	3	1104
HLD	7	0	4	336
XTP	8	192	3
XTP	8	192	4
HLD	9	0	2	192
HLD	9	0	4	192
TAP	10	0	3
TAP	10	192	4
HLD	11	0	3	192
HLD	11	0	5	192
TAP	12	0	4
TAP	12	192	2
HLD	13	0	1	192
HLD	13	0	3	192
TAP	14	0	2
TAP	14	192	1
HLD	15	0	0	192
HLD	15	0	7	192
XTP	16	0	0
XTP	16	0	7
XTP	16	192	1
XTP	16	192	6
TAP	17	0	2
HLD	17	192	2	192
HLD	17	192	3	192
TAP	18	192	3
TAP	18	192	4
HLD	19	0	4	192
HLD	19	0	5	192
TAP	20	0	3
TAP	20	0	6
TAP	21	0	6
HLD	21	192	6	192
HLD	21	192	7	192
TAP	22	192	0
TAP	22	192	7
HLD	23	0	1	192
HLD	23	0	6	192
TAP	24	0	2
TAP	24	0	5
XTP	24	192	1
XTP	24	192	6
HLD	25	0	2	192
HLD	25	0	3	192
TAP	26	0	2
TAP	26	192	3
TAP	26	192	4
HLD	27	0	4	192
HLD	27	0	5	192
TAP	28	0	5
TAP	28	192	6
TAP	28	192	7
HLD	29	0	0	192
HLD	29	0	7	192
TAP	30	0	1
TAP	30	0	6
TAP	30	192	2
TAP	30	192	5
HLD	31	0	3	192
HLD	31	0	4	192
TAP	32	0	3
TAP	32	0	4
XTP	32	192	2
XTP	32	192	5
TTP	33	0	5	B	0	L1
TTP	33	192	7	E	0	L1
TTP	34	0	0	B	0	L1
TTP	34	0	1	E	0	L1
TTP	35	0	0	E	0	L1
TTP	35	192	0	C	0	L1
TTP	36	0	3	B	0	L1
TTP	36	0	4	B	0	L1
TTP	37	0	2	E	0	L1
TTP	37	192	3	B	0	L1
TTP	38	0	4	B	0	L1
TTP	38	192	6	E	0	L1
THO	39	0	0	384	C	1	L1
TAP	41	0	1
TAP	41	96	1
TAP	41	192	0
TAP	42	0	2
TAP	42	96	2
TAP	42	192	3
TAP	43	0	5
TAP	43	96	5
TAP	43	192	4
TAP	44	0	4
TAP	44	0	5
TAP	44	192	3
TAP	44	192	6
HLD	45	0	1	192
TAP	45	192	3
HLD	46	0	6	192
TAP	46	192	4
STR	47	0	0
SI_	47	0	0	96	288	3
STR	47	0	7
SI_	47	0	7	96	288	4
XTP	48	192	2
XTP	48	192	5
TAP	49	0	5
TAP	49	96	5
TAP	49	192	4
TAP	50	0	2
TAP	50	96	2
TAP	50	192	3
STR	51	0	6
SCL	51	0	6	96	480	2
HLD	53	0	1	192
TAP	53	192	0
HLD	54	0	6	192
TAP	54	192	7
TAP	55	0	0
TAP	55	96	0
TAP	55	192	7
XHO	56	0	1	192
XHO	56	0	6	192
TTP	57	0	2	E	0	L1
TTP	57	192	2	B	0	L1
TTP	58	0	3	B	0	L1
TTP	58	192	4	E	0	L1
TTP	59	0	4	B	0	L1
TTP	59	192	5	B	0	L1
TTP	60	0	6	E	0	L1
TTP	60	192	7	E	0	L1
TTP	61	0	0	E	0	L1
TTP	61	192	0	B	0	L1
TTP	61	192	7	B	0	L1
TTP	62	0	1	B	0	L1
TTP	62	0	6	B	0	L1
TTP	62	192	2	E	0	L1
TTP	62	192	6	E	0	L1
TTP	63	0	2	B	0	L1
TTP	63	0	5	B	0	L1
TTP	63	192	3	B	0	L1
TTP	63	192	4	B	0	L1
THO	64	0	0	192	C	0	L1
HLD	65	0	0	192
HLD	65	0	6	192
TAP	66	0	7
TAP	66	96	7
HLD	67	0	4	192
HLD	67	0	6	192
TAP	68	0	5
TAP	68	96	5
HLD	69	0	2	192
HLD	69	0	4	192
TAP	70	0	3
TAP	70	96	3
THO	71	0	0	384	C	0	L1
BRK	72	192	0
BRK	72	192	7
HLD	73	0	1	576
TAP	73	192	3
HLD	74	0	3	192
HLD	75	0	5	576
TAP	75	192	3
HLD	76	0	3	192
HLD	77	0	6	576
TAP	77	192	0
HLD	78	0	0	192
TAP	79	0	3
TAP	79	0	5
TAP	79	192	2
TAP	79	192	4
TAP	80	0	3
TAP	80	0	4
XTP	80	192	1
XTP	80	192	6
STR	81	0	2
SCL	81	0	2	96	288	7
TAP	82	192	6
STR	83	0	6
SCL	83	0	6	96	288	3
TAP	84	192	2
STR	85	0	1
SUR	85	0	1	96	288	5
TAP	86	192	6
XHO	87	0	0	96
XHO	87	0	7	96
XHO	87	192	0	96
XHO	87	192	7	96
BRK	88	0	1
BRK	88	0	6
TAP	89	0	0
HLD	89	0	1	384
HLD	90	0	2	384
HLD	91	0	3	384
TAP	93	0	4
HLD	93	0	5	384
HLD	94	0	6	384
HLD	95	0	7	384
HLD	97	0	4	384
HLD	97	0	5	768
TAP	99	0	4
TAP	100	0	3
TAP	100	0	4
TAP	100	192	3
TAP	100	192	4
HLD	101	0	2	384
HLD	101	0	3	768
THO	103	0	0	384	C	0	L1
TTP	105	0	0	C	1	L1
TTP	105	0	2	B	0	L1
TTP	105	0	5	B	0	L1
TAP	106	0	0
TAP	106	96	0
TAP	106	192	1
TAP	106	288	1
HLD	107	0	2	192
TAP	107	192	3
TAP	108	0	4
TAP	108	96	4
TAP	108	192	5
TAP	108	288	5
HLD	109	0	6	192
TAP	109	192	7
TAP	110	0	3
TAP	110	0	5
TAP	110	96	3
TAP	110	96	5
TAP	110	192	3
TAP	110	192	5
TAP	111	0	2
TAP	111	0	4
TAP	111	96	2
TAP	111	96	4
TAP	111	192	2
TAP	111	192	4
STR	112	0	3
SCL	112	0	3	96	288	0
STR	112	0	4
SCR	112	0	4	96	288	7
XTP	113	192	1
XTP	113	192	6
TAP	114	0	2
TAP	114	96	2
TAP	114	192	1
TAP	114	192	3
TAP	115	0	5
TAP	115	96	5
TAP	115	192	4
TAP	115	192	6
STR	116	0	2
SCL	116	0	2	96	480	6
HLD	118	0	5	192
XTP	118	192	7
HLD	119	0	2	192
XTP	119	192	0
TAP	120	0	3
TAP	120	0	4
TAP	120	192	2
TAP	120	192	5
TAP	120	288	2
TAP	120	288	5
XHO	121	0	2	192
XHO	121	0	5	192
HLD	122	0	3	384
TAP	122	192	4
TAP	123	0	5
TAP	123	192	4
TAP	123	192	6
HLD	124	0	7	384
TAP	124	192	0
TAP	125	0	1
TAP	125	192	0
TAP	125	192	2
TAP	126	0	3
TAP	126	0	4
XHO	126	96	3	192
XHO	126	96	4	192
HLD	127	96	2	192
HLD	127	96	5	192
HLD	128	96	1	192
HLD	128	96	6	192
HLD	129	96	0	192
HLD	129	96	7	264

T_REC_TAP	125
T_REC_BRK	4
T_REC_XTP	18
T_REC_HLD	64
T_REC_XHO	10
T_REC_STR	9
T_REC_BST	0
T_REC_XST	0
T_REC_TTP	34
T_REC_THO	4
T_REC_SLD	9
T_REC_ALL	277
T_NUM_TAP	186
T_NUM_BRK	4
T_NUM_HLD	78
T_NUM_SLD	9
T_NUM_ALL	277
T_JUDGE_TAP	190
T_JUDGE_HLD	428
T_JUDGE_SLD	9
T_JUDGE_ALL	627
TTM_EACHPAIRS	69
TTM_SCR_TAP	93000
TTM_SCR_BRK	10400
TTM_SCR_HLD	78000
TTM_SCR_SLD	13500
TTM_SCR_ALL	194900
TTM_SCR_S	188700
TTM_SCR_SS	194500
TTM_RAT_ACV	10020

