VERSION	0.00.00	1.03.00
FES_MODE	0
BPM_DEF	208.000	208.000	208.000	208.000
MET_DEF	4	4
RESOLUTION	384
CLK_DEF	384
COMPATIBLE_CODE	MA2

BPM	0	0	208.000
MET	0	0	4	4

TAP	9	0	3
TAP	10	0	3
TAP	11	0	3
TAP	12	0	3
TAP	12	0	4
TAP	13	0	4
TAP	14	0	4
TAP	15	0	4
BRK	16	0	3
BRK	16	0	4
TAP	17	0	3
TAP	18	0	3
TAP	19	0	2
TAP	19	192	2
TAP	20	0	2
TAP	21	0	1
TAP	22	0	1
TAP	23	0	0
TAP	23	192	0
XTP	24	0	0
TAP	25	0	7
TAP	26	0	7
TAP	27	0	6
TAP	27	192	6
TAP	28	0	6
TAP	29	0	5
TAP	30	0	5
TAP	31	0	4
TAP	31	192	4
BRK	32	0	4
TTP	33	0	3	B	0	L1
TTP	34	0	2	B	0	L1
TTP	35	0	1	B	0	L1
TTP	36	0	0	B	0	L1
TTP	36	0	7	B	0	L1
TTP	37	0	6	B	0	L1
TTP	38	0	5	B	0	L1
THO	39	0	0	384	C	1	L1
TAP	41	0	0
TAP	41	192	0
TAP	42	0	0
TAP	42	96	0
TAP	42	192	0
TAP	43	0	1
HLD	43	192	1	384
TAP	45	0	2
TAP	45	192	2
TAP	46	0	2
TAP	46	96	2
TAP	46	192	2
HLD	47	0	3	192
XTP	48	0	3
XTP	48	0	4
TAP	49	0	4
TAP	49	192	4
TAP	50	0	4
TAP	50	96	4
TAP	50	192	4
TAP	51	0	5
HLD	51	192	5	384
TAP	53	0	6
TAP	53	192	6
TAP	54	0	6
TAP	54	96	6
TAP	54	192	6
TAP	55	0	0
TAP	55	0	7
TAP	55	192	0
TAP	55	192	7
BRK	56	0	1
BRK	56	0	6
TAP	57	0	7
TAP	58	0	6
TAP	59	0	5
TAP	60	0	3
TAP	60	0	4
TAP	61	0	3
TAP	62	0	2
TAP	63	0	1
TAP	64	0	0
TAP	64	0	7
STR	65	0	0
SI_	65	0	0	96	288	4
TAP	67	0	6
TAP	67	192	6
TAP	68	0	0
TAP	68	0	7
STR	69	0	7
SI_	69	0	7	96	288	3
TAP	71	0	1
TAP	71	192	1
BRK	72	0	0
BRK	72	0	7
TAP	73	0	1
TAP	73	192	1
TAP	74	0	2
TAP	74	192	2
TAP	75	0	3
TAP	75	192	3
TAP	76	0	3
TAP	76	0	4
TAP	77	0	6
TAP	77	192	6
TAP	78	0	5
TAP	78	192	5
TAP	79	0	4
TAP	79	192	4
XTP	80	0	3
XTP	80	0	4
TTP	81	0	3	B	0	L1
TTP	82	0	2	B	0	L1
TTP	83	0	1	B	0	L1
TTP	84	0	0	B	0	L1
TTP	84	0	7	B	0	L1
TTP	85	0	6	B	0	L1
TTP	86	0	5	B	0	L1
THO	87	0	0	384	C	1	L1
STR	89	0	0
SI_	89	0	0	96	288	4
HLD	91	0	5	384
STR	93	0	7
SI_	93	0	7	96	288	3
HLD	95	0	2	384
TAP	97	0	3
TAP	97	0	4
TAP	98	0	3
TAP	98	0	4
TAP	99	0	2
TAP	99	0	5
HLD	99	192	2	384
HLD	99	192	5	384
TAP	101	0	3
TAP	101	0	4
TAP	102	0	3
TAP	102	0	4
TAP	103	0	2
TAP	103	0	5
TAP	103	192	2
TAP	103	192	5
XTP	104	0	3
XTP	104	0	4
XTP	105	0	3
XTP	105	0	4
TAP	106	0	3
TAP	106	96	3
TAP	106	192	3
TAP	107	0	4
TAP	107	96	4
TAP	107	192	4
TAP	108	0	4
TAP	108	0	5
HLD	108	192	4	384
HLD	108	192	5	384
TAP	110	0	6
TAP	110	96	6
TAP	110	192	6
TAP	111	0	7
TAP	111	96	7
TAP	111	192	7
HLD	112	0	0	192
HLD	112	0	7	192
TAP	113	0	0
TAP	113	0	7
BRK	113	192	0
BRK	113	192	7
TAP	114	0	1
TAP	114	96	1
TAP	114	192	1
TAP	115	0	2
TAP	115	96	2
TAP	115	192	2
TAP	116	0	2
TAP	116	0	3
HLD	116	192	2	384
HLD	116	192	3	384
TAP	118	0	4
TAP	118	96	4
TAP	118	192	4
TAP	119	0	3
TAP	119	96	3
TAP	119	192	3
TAP	120	0	3
TAP	120	0	4
TAP	120	96	3
TAP	120	96	4
TAP	120	192	3
TAP	120	192	4
BRK	121	0	2
BRK	121	0	5
TTP	122	0	4	B	0	L1
TTP	123	0	5	B	0	L1
TTP	124	0	6	B	0	L1
TTP	125	0	0	B	0	L1
TTP	125	0	7	B	0	L1
TTP	126	0	1	B	0	L1
TTP	127	0	2	B	0	L1
TTP	128	0	3	B	0	L1
TTP	128	0	4	B	0	L1
THO	129	0	0	352	C	0	L1

T_REC_TAP	132
T_REC_BRK	11
T_REC_XTP	9
T_REC_HLD	13
T_REC_XHO	0
T_REC_STR	4
T_REC_BST	0
T_REC_XST	0
T_REC_TTP	23
T_REC_THO	3
T_REC_SLD	4
T_REC_ALL	199
T_NUM_TAP	168
T_NUM_BRK	11
T_NUM_HLD	16
T_NUM_SLD	4
T_NUM_ALL	199
T_JUDGE_TAP	179
T_JUDGE_HLD	116
T_JUDGE_SLD	4
T_JUDGE_ALL	299
TTM_EACHPAIRS	33
TTM_SCR_TAP	84000
TTM_SCR_BRK	28600
TTM_SCR_HLD	16000
TTM_SCR_SLD	6000
TTM_SCR_ALL	134600
TTM_SCR_S	129500
TTM_SCR_SS	133500
TTM_RAT_ACV	10082

