VERSION	0.00.00	1.03.00
FES_MODE	0
BPM_DEF	238.000	238.000	238.000	238.000
MET_DEF	4	4
RESOLUTION	384
CLK_DEF	384
COMPATIBLE_CODE	MA2

BPM	0	0	238.000
MET	0	0	4	4
MET	11	0	4	2
MET	11	192	4	4
MET	15	192	4	2
MET	16	0	4	4
MET	53	0	4	2
MET	53	192	4	4

TAP	3	0	1
TAP	3	0	3
TAP	3	96	4
TAP	3	192	3
TAP	3	192	5
TAP	3	288	2
TAP	4	0	0
TAP	4	0	1
TAP	4	96	2
TAP	4	192	3
TAP	4	192	4
TAP	4	288	5
TAP	5	0	4
TAP	5	0	6
TAP	5	96	3
TAP	5	192	2
TAP	5	192	4
TAP	5	288	5
TAP	6	0	6
TAP	6	0	7
TAP	6	96	5
TAP	6	192	3
TAP	6	192	4
TAP	6	288	2
HLD	7	0	0	192
TAP	7	0	1
TAP	7	96	2
HLD	7	192	3	192
TAP	7	288	1
HLD	8	0	2	192
TAP	8	96	1
HLD	8	192	0	192
TAP	8	288	7
HLD	9	0	6	192
TAP	9	96	5
HLD	9	192	4	192
TAP	9	288	6
HLD	10	0	7	192
TAP	10	96	6
HLD	10	192	5	180
HLD	10	288	0	84
XTP	11	0	4
XTP	11	0	7
XTP	11	12	3
XTP	11	12	6
XTP	11	24	2
XTP	11	24	5
XTP	11	36	1
XTP	11	36	4
TAP	11	192	6
HLD	11	192	7	192
TAP	11	288	5
HLD	12	0	4	192
TAP	12	96	6
HLD	12	192	5	192
TAP	12	288	6
HLD	13	0	7	192
TAP	13	96	0
HLD	13	192	1	192
TAP	13	288	2
HLD	14	0	3	192
TAP	14	96	1
HLD	14	192	0	192
TAP	14	288	1
HLD	15	0	2	240
HLD	15	96	7	144
XTP	15	252	0
XTP	15	252	3
XTP	15	264	1
XTP	15	264	4
XTP	15	276	2
XTP	15	276	5
XTP	15	288	3
XTP	15	288	6
XST	16	0	5
SUL	16	0	5	96	96	0
TAP	16	96	2
STR	16	192	3
SUR	16	192	3	96	96	7
TAP	16	288	5
STR	17	0	4
SUL	17	0	4	96	96	0
TAP	17	96	1
STR	17	192	2
SUR	17	192	2	96	96	7
TAP	17	288	6
XTP	18	0	5
TAP	18	96	0
TAP	18	96	5
TAP	18	192	2
TAP	18	192	7
TAP	18	288	1
TAP	18	288	3
TAP	19	0	4
TAP	19	0	6
TAP	19	96	0
TAP	19	96	7
TAP	19	192	2
TAP	19	240	2
TAP	19	288	5
TAP	19	336	5
HLD	20	0	3	96
HLD	20	0	4	240
HLD	20	144	2	240
HLD	20	288	6	240
HLD	21	48	0	144
HLD	21	192	7	96
HLD	21	288	5	96
HLD	22	0	4	96
HLD	22	96	3	96
HLD	22	192	2	96
TAP	22	288	0
BRK	23	0	0
BRK	23	0	7
TTP	23	144	0	B	0	M1
XTP	23	144	7
TTP	23	160	1	B	0	M1
TAP	23	160	6
TTP	23	176	2	B	0	M1
TAP	23	176	5
TTP	23	192	3	B	0	M1
TAP	23	192	4
XTP	23	288	0
TTP	23	288	7	B	0	M1
TAP	23	304	1
TTP	23	304	6	B	0	M1
TAP	23	320	2
TTP	23	320	5	B	0	M1
TAP	23	336	3
TTP	23	336	4	B	0	M1
TTP	24	48	0	B	0	M1
XTP	24	48	7
TTP	24	64	1	B	0	M1
TAP	24	64	6
TTP	24	80	2	B	0	M1
TAP	24	80	5
TTP	24	96	3	B	0	M1
TAP	24	96	4
XTP	24	192	0
TTP	24	192	7	B	0	M1
TAP	24	208	1
TTP	24	208	6	B	0	M1
TAP	24	224	2
TTP	24	224	5	B	0	M1
TAP	24	240	3
TTP	24	240	4	B	0	M1
XTP	24	288	0
XTP	24	288	7
HLD	25	0	0	576
BST	25	0	7
SCR	25	0	7	96	480	6
TAP	27	0	5
TAP	27	32	4
TAP	27	64	5
TAP	27	96	2
TAP	27	128	3
TAP	27	160	2
TAP	27	192	5
TAP	27	224	3
TAP	27	256	6
TAP	27	288	2
TAP	27	320	7
TAP	27	352	1
BRK	28	0	0
TTP	29	0	0	C	1	M1
TTP	29	0	1	B	0	M1
TTP	29	0	2	B	0	M1
TTP	29	0	5	B	0	M1
TTP	29	0	6	B	0	M1
TAP	29	192	5
TAP	29	224	4
TAP	29	256	5
TAP	29	288	2
TAP	29	320	3
TAP	29	352	2
TAP	30	0	6
TAP	30	32	5
TAP	30	64	6
TAP	30	96	1
TAP	30	128	2
TAP	30	160	1
TAP	30	192	6
TAP	30	224	7
TAP	30	256	6
TAP	30	288	1
TAP	30	320	0
TAP	30	352	1
TAP	31	0	7
TAP	31	32	6
TAP	31	64	5
TAP	31	96	0
TAP	31	128	1
TAP	31	160	2
TAP	31	192	6
TAP	31	224	5
TAP	31	256	4
TAP	31	288	1
TAP	31	320	2
TAP	31	352	3
TAP	32	0	6
TAP	32	32	4
TAP	32	64	6
TAP	32	96	2
TAP	32	128	3
TAP	32	160	2
TAP	32	192	5
TAP	32	224	4
TAP	32	256	5
TAP	32	288	1
TAP	32	320	3
TAP	32	352	1
XTP	33	0	0
XST	33	0	3
SCR	33	0	3	96	96	7
XTP	33	96	0
XTP	33	96	3
TTP	33	112	0	E	0	M1
TTP	33	128	7	B	0	M1
TTP	33	144	6	B	0	M1
TTP	33	160	5	B	0	M1
TTP	33	176	4	B	0	M1
TTP	33	192	4	E	0	M1
XST	33	288	4
SCL	33	288	4	96	96	0
XTP	33	288	7
XTP	34	0	4
XTP	34	0	7
TTP	34	16	0	E	0	M1
TTP	34	32	0	B	0	M1
TTP	34	48	1	B	0	M1
TTP	34	64	2	B	0	M1
TTP	34	80	3	B	0	M1
TTP	34	96	4	E	0	M1
XST	34	192	0
SXL	34	192	0	96	576	3
XST	34	192	4
SXL	34	192	4	96	576	7
BRK	34	288	0
BRK	34	288	4
TTP	37	0	2	B	0	M1
HLD	37	0	5	192
TTP	37	16	3	B	0	M1
TTP	37	32	4	B	0	M1
HLD	38	0	2	192
TTP	38	0	5	B	0	M1
TTP	38	16	4	B	0	M1
TTP	38	32	3	B	0	M1
TTP	39	0	1	B	0	M1
TAP	39	0	6
TTP	39	16	2	B	0	M1
TTP	39	32	3	B	0	M1
TTP	39	192	1	E	0	M1
TAP	39	192	7
TTP	39	208	2	E	0	M1
TTP	39	224	3	E	0	M1
TAP	40	0	0
TTP	40	0	7	E	0	M1
TTP	40	16	6	E	0	M1
TTP	40	32	5	E	0	M1
TAP	40	192	1
TTP	40	192	6	B	0	M1
TTP	40	208	5	B	0	M1
TTP	40	224	4	B	0	M1
HLD	41	0	2	192
TTP	41	0	7	B	0	M1
TTP	41	16	0	C	0	M1
TTP	41	32	2	B	0	M1
TTP	42	0	0	B	0	M1
HLD	42	0	5	192
TTP	42	16	0	C	0	M1
TTP	42	32	5	B	0	M1
HLD	43	0	3	192
TTP	43	0	5	B	0	M1
TTP	43	16	4	B	0	M1
TTP	43	32	3	B	0	M1
TTP	44	0	2	B	0	M1
HLD	44	0	4	192
TTP	44	16	3	B	0	M1
TTP	44	32	4	B	0	M1
HLD	44	192	0	192
STR	45	0	6
SCR	45	0	6	96	192	1
STR	45	192	2
SUL	45	192	2	96	192	5
STR	46	0	4
SUL	46	0	4	96	192	3
STR	47	0	0
SUR	47	0	0	96	192	6
STR	47	0	1
SCR	47	0	1	96	192	5
STR	48	0	6
SCL	48	0	6	96	192	2
STR	48	0	7
SUL	48	0	7	96	192	1
TAP	49	0	2
TAP	49	0	5
TAP	49	144	0
TAP	49	144	2
TAP	49	240	5
TAP	49	240	7
TAP	49	336	3
TAP	49	336	4
HLD	50	0	3	192
HLD	50	0	4	192
STR	50	288	1
SXR	50	288	1	96	288	4
STR	50	288	6
SXL	50	288	6	96	288	3
XTP	51	0	1
XTP	51	0	6
TAP	52	0	2
TAP	52	0	5
TTP	52	48	3	B	0	M1
TTP	52	48	3	E	0	M1
TTP	52	96	7	B	0	M1
TTP	52	96	7	E	0	M1
TTP	52	144	1	B	0	M1
TTP	52	144	2	B	0	M1
TTP	52	192	5	B	0	M1
TTP	52	192	6	B	0	M1
TTP	52	240	0	B	0	M1
TTP	52	240	1	E	0	M1
TTP	52	288	4	B	0	M1
TTP	52	288	5	E	0	M1
TTP	52	336	0	C	0	M1
BST	53	0	7
SF_	53	0	7	96	48	3
XTP	53	192	1
XTP	53	192	6
TAP	53	288	5
TAP	53	320	4
TAP	53	352	5
TAP	54	0	1
TAP	54	32	3
TAP	54	64	2
TAP	54	96	6
TAP	54	128	4
TAP	54	160	5
STR	54	192	0
SCR	54	192	0	96	96	4
TAP	54	288	5
TAP	55	0	5
TAP	55	96	3
TAP	55	96	5
TAP	55	144	4
STR	55	192	3
SUR	55	192	3	96	96	0
TAP	55	192	5
TAP	55	288	5
TAP	56	0	5
TAP	56	96	0
TAP	56	96	5
TAP	56	144	1
STR	56	192	2
SUL	56	192	2	96	96	3
TAP	56	192	5
TAP	56	288	5
TAP	57	0	5
TAP	57	96	2
TAP	57	96	5
TAP	57	144	1
TAP	57	144	6
XST	57	192	0
SI_	57	192	0	96	48	4
XST	57	192	7
SI_	57	192	7	96	48	3
TAP	58	0	6
TAP	58	32	4
TAP	58	64	5
TAP	58	96	1
TAP	58	128	3
TAP	58	160	2
STR	58	192	7
SCL	58	192	7	96	96	3
TAP	58	288	2
TAP	59	0	2
TAP	59	96	2
TAP	59	96	4
TAP	59	144	3
TAP	59	192	2
STR	59	192	4
SUL	59	192	4	96	96	7
TAP	59	288	2
TAP	60	0	2
TAP	60	96	2
TAP	60	96	7
TAP	60	144	1
TAP	60	144	6
STR	60	192	0
SI_	60	192	0	96	48	4
STR	60	192	5
SI_	60	192	5	96	48	1
TAP	61	0	6
TAP	61	24	7
TAP	61	48	6
TAP	61	72	7
TAP	61	96	6
TAP	61	120	7
TAP	61	144	6
XTP	61	192	1
XTP	61	192	5
TAP	61	288	2
TAP	61	336	3
TAP	62	0	2
TAP	62	48	5
TAP	62	96	2
TAP	62	144	7
TAP	62	192	0
TAP	62	192	2
TAP	62	288	5
TAP	62	336	4
TAP	63	0	5
TAP	63	48	2
TAP	63	96	5
TAP	63	144	0
TAP	63	192	5
TAP	63	192	7
TAP	63	288	2
TAP	63	288	3
TAP	63	336	2
TAP	63	336	3
TAP	64	48	5
TAP	64	96	6
TAP	64	144	7
TAP	64	192	1
TAP	64	216	0
TAP	64	240	1
TAP	64	264	0
XTP	64	288	2
XTP	64	288	7
TAP	65	0	5
TAP	65	24	4
TAP	65	48	5
TAP	65	72	4
XTP	65	96	3
XTP	65	96	6
TAP	65	192	0
TAP	65	192	7
TAP	65	288	2
TAP	65	336	3
TAP	66	0	2
TAP	66	48	5
TAP	66	96	2
TAP	66	144	7
TAP	66	192	0
TAP	66	192	2
TAP	66	288	4
TAP	66	288	5
STR	66	336	4
SI_	66	336	4	96	48	0
TAP	66	336	5
STR	67	48	7
SCL	67	48	7	96	192	0
HLD	67	144	7	192
TAP	68	48	7
TAP	68	96	0
TAP	68	144	7
TAP	68	192	1
TAP	68	192	6
TAP	68	288	2
TAP	68	288	3
TAP	68	336	2
STR	68	336	3
SI_	68	336	3	96	48	7
TAP	69	48	0
TAP	69	144	1
TAP	69	144	6
TAP	69	192	0
TAP	69	216	7
TAP	69	240	0
TAP	69	264	7
XST	69	288	1
SI_	69	288	1	96	48	4
XST	69	288	6
SI_	69	288	6	96	48	3
TTP	70	192	0	B	0	M1
TAP	70	192	7
TTP	70	288	6	B	0	M1
TAP	70	288	7
TTP	71	0	2	B	0	M1
TAP	71	0	7
TTP	71	96	4	B	0	M1
TAP	71	96	7
TAP	71	192	2
TAP	71	240	3
TAP	71	288	4
TAP	71	336	5
TAP	72	0	4
TAP	72	48	3
TAP	72	96	2
TAP	72	144	1
TAP	72	192	0
TTP	72	192	7	B	0	M1
TAP	72	288	0
TTP	72	288	1	B	0	M1
TAP	73	0	0
TTP	73	0	5	B	0	M1
TAP	73	96	0
TTP	73	96	3	B	0	M1
TAP	73	192	5
TAP	73	240	4
TAP	73	288	3
TAP	73	336	2
TAP	74	0	3
TAP	74	48	4
TAP	74	96	5
TAP	74	144	6
TAP	74	192	0
TAP	74	192	7
TAP	74	288	2
TAP	74	336	0
TAP	75	0	3
TAP	75	48	7
TAP	75	96	4
TAP	75	144	6
TAP	75	192	4
TAP	75	192	5
TAP	75	288	5
TAP	75	336	3
TAP	76	0	6
TAP	76	48	2
TAP	76	96	7
TAP	76	144	1
TAP	76	192	0
TAP	76	192	7
TAP	76	224	6
TAP	76	256	5
TAP	76	288	1
TAP	76	320	2
TAP	76	352	3
TTP	77	0	0	E	0	M1
TTP	77	32	7	E	0	M1
TTP	77	64	6	E	0	M1
TTP	77	96	5	E	0	M1
TTP	77	128	4	E	0	M1
TTP	77	160	3	E	0	M1
TAP	77	192	0
TAP	77	224	1
TAP	77	256	2
TAP	77	288	6
TAP	77	320	5
TAP	77	352	4
TTP	78	0	0	E	0	M1
TTP	78	32	1	E	0	M1
TTP	78	64	2	E	0	M1
TTP	78	96	3	E	0	M1
TTP	78	128	4	E	0	M1
TTP	78	160	5	E	0	M1
TAP	78	192	7
TAP	78	224	6
TAP	78	256	5
TAP	78	288	1
TAP	78	320	2
TAP	78	352	3
TTP	79	0	1	E	0	M1
TTP	79	32	0	E	0	M1
TTP	79	64	7	E	0	M1
TTP	79	96	6	E	0	M1
TTP	79	128	5	E	0	M1
TTP	79	160	4	E	0	M1
TAP	79	192	0
TAP	79	224	1
TAP	79	256	2
TAP	79	288	6
TAP	79	320	5
TAP	79	352	4
TTP	80	0	7	E	0	M1
TTP	80	32	0	E	0	M1
TTP	80	64	1	E	0	M1
TTP	80	96	2	E	0	M1
TTP	80	128	3	E	0	M1
TTP	80	160	4	E	0	M1
XTP	80	192	4
XTP	80	192	5
TAP	80	288	2
TAP	80	288	5
TAP	81	0	0
TAP	81	0	5
TAP	81	96	5
TAP	81	96	6
TAP	81	192	2
TAP	81	192	3
TAP	81	288	2
TAP	81	288	5
TAP	82	0	2
TAP	82	0	7
TAP	82	96	1
TAP	82	96	2
TAP	82	192	4
HLD	82	192	5	192
TTP	82	288	7	E	0	M1
TTP	82	304	6	B	0	M1
TTP	82	320	5	B	0	M1
TTP	82	336	5	E	0	M1
HLD	83	0	2	192
TTP	83	96	1	E	0	M1
TTP	83	112	1	B	0	M1
TTP	83	128	2	B	0	M1
TTP	83	144	3	E	0	M1
TAP	83	192	5
TAP	83	224	3
TAP	83	256	4
TAP	83	288	3
TAP	83	320	4
TAP	83	352	3
TAP	84	0	6
TAP	84	32	4
TAP	84	64	5
TAP	84	96	1
TAP	84	128	3
TAP	84	160	2
HLD	84	192	3	48
HLD	84	192	4	192
TAP	84	288	1
HLD	84	336	2	192
TAP	85	48	6
HLD	85	96	5	192
TAP	85	192	0
HLD	85	240	1	144
TAP	85	336	7
TAP	86	0	6
TAP	86	48	0
TAP	86	72	7
TAP	86	96	1
TAP	86	96	6
TAP	86	192	2
TAP	86	216	5
TAP	86	240	3
TAP	86	264	4
TAP	86	288	2
TAP	86	312	5
TAP	86	336	3
TAP	86	360	4
TAP	87	0	2
TAP	87	24	5
TAP	87	48	3
TAP	87	72	4
XST	87	96	1
SLL	87	96	1	96	240	3
XST	87	96	6
SLR	87	96	6	96	240	4
XTP	88	192	4
XTP	88	192	6
TAP	88	240	3
TAP	88	288	2
XTP	88	336	1
XTP	88	336	3
TAP	89	0	4
TAP	89	48	5
XTP	89	96	4
XTP	89	96	6
TAP	89	144	3
TAP	89	144	5
TAP	89	192	2
TAP	89	192	4
XTP	89	240	1
XTP	89	240	3
TAP	89	288	2
TAP	89	288	4
TAP	89	336	3
TAP	89	336	5
XTP	90	0	7
TAP	90	12	6
TAP	90	24	5
TAP	90	36	4
TAP	90	48	3
TAP	90	60	2
TAP	90	72	1
TAP	90	84	0
TAP	90	96	7
TAP	90	108	6
TAP	90	120	5
TAP	90	132	4
TAP	90	144	3
TAP	90	156	2
TAP	90	168	1
TAP	90	180	0
XTP	90	192	3
XTP	90	192	7
TTP	90	336	0	B	0	M1
XTP	90	336	7
TTP	90	352	1	B	0	M1
TAP	90	352	6
TTP	90	368	2	B	0	M1
TAP	90	368	5
TTP	91	0	3	B	0	M1
TAP	91	0	4
XTP	91	96	0
TTP	91	96	7	B	0	M1
TAP	91	112	1
TTP	91	112	6	B	0	M1
TAP	91	128	2
TTP	91	128	5	B	0	M1
TAP	91	144	3
TTP	91	144	4	B	0	M1
TTP	91	240	0	B	0	M1
XTP	91	240	7
TTP	91	256	1	B	0	M1
TAP	91	256	6
TTP	91	272	2	B	0	M1
TAP	91	272	5
TTP	91	288	3	B	0	M1
TAP	91	288	4
XTP	92	0	0
TTP	92	0	7	B	0	M1
TAP	92	16	1
TTP	92	16	6	B	0	M1
TAP	92	32	2
TTP	92	32	5	B	0	M1
TAP	92	48	3
TTP	92	48	4	B	0	M1
XTP	92	96	0
XTP	92	96	7
BRK	92	192	0
BRK	92	192	7
TTP	93	0	3	B	0	M1
TTP	93	32	7	B	0	M1
TTP	93	64	2	B	0	M1
TTP	93	96	6	B	0	M1
TTP	93	128	2	E	0	M1
TTP	93	160	6	E	0	M1
TTP	93	192	1	B	0	M1
TTP	93	224	5	B	0	M1
TTP	93	256	0	B	0	M1
TTP	93	288	4	B	0	M1
TTP	93	320	0	E	0	M1
TTP	93	352	4	E	0	M1
TTP	94	0	7	B	0	M1
TTP	94	32	3	B	0	M1
TTP	94	64	6	B	0	M1
TTP	94	96	2	B	0	M1
TTP	94	128	6	E	0	M1
TTP	94	160	2	E	0	M1
XTP	94	192	7
TAP	94	224	3
TAP	94	256	0
TAP	94	288	4
TAP	94	320	1
TAP	94	352	5
TAP	95	0	2
TAP	95	32	6
TAP	95	64	3
TAP	95	96	7
TAP	95	128	4
TAP	95	160	0
XTP	95	192	1
XTP	95	192	5
TAP	95	288	3
TAP	95	320	4
TAP	95	352	3
TAP	96	0	6
TAP	96	32	4
TAP	96	64	6
TAP	96	96	1
TAP	96	128	3
TAP	96	160	1
XTP	96	192	0
XST	96	192	3
SCR	96	192	3	96	96	7
BRK	96	288	0
BRK	96	288	3
TTP	96	304	0	E	0	M1
TTP	96	320	7	B	0	M1
TTP	96	336	6	B	0	M1
TTP	96	352	5	B	0	M1
TTP	96	368	4	B	0	M1
TTP	97	0	4	E	0	M1
XST	97	96	4
SCL	97	96	4	96	96	0
XTP	97	96	7
BRK	97	192	4
BRK	97	192	7
TTP	97	208	0	E	0	M1
TTP	97	224	0	B	0	M1
TTP	97	240	1	B	0	M1
TTP	97	256	2	B	0	M1
TTP	97	272	3	B	0	M1
TTP	97	288	4	E	0	M1
XST	98	0	0
SXL	98	0	0	96	288	3
XST	98	0	4
SXL	98	0	4	96	288	7
BRK	98	96	0
BRK	98	96	4
TAP	99	96	7
TAP	99	120	3
TAP	99	144	7
TAP	99	168	3
TAP	99	192	6
TAP	99	216	2
TAP	99	240	6
TAP	99	264	2
TAP	99	288	5
TAP	99	312	1
TAP	99	336	5
TAP	99	360	1
STR	100	0	4
SF_	100	0	4	96	48	0
XTP	100	192	2
XTP	100	192	6
TAP	100	288	5
TAP	100	288	7
STR	100	336	5
SI_	100	336	5	96	48	1
TAP	100	336	7
TAP	101	48	3
TAP	101	144	0
TAP	101	144	2
STR	101	192	0
SI_	101	192	0	96	48	4
TAP	101	192	2
TAP	101	288	2
TAP	102	0	2
STR	102	0	3
SI_	102	0	3	96	48	7
TAP	102	96	2
TAP	102	192	2
TAP	102	192	6
TAP	102	288	0
TAP	102	288	2
TAP	102	336	0
STR	102	336	2
SI_	102	336	2	96	48	6
TAP	103	48	4
TAP	103	144	5
TAP	103	144	7
TAP	103	192	5
TAP	103	192	7
TAP	103	240	6
TAP	103	288	7
STR	103	336	0
SI_	103	336	0	96	48	4
TAP	103	336	4
XTP	104	48	7
XTP	104	96	7
TAP	104	192	1
STR	104	192	6
SI_	104	192	6	96	48	2
TAP	104	288	0
STR	104	336	0
SI_	104	336	0	96	48	5
STR	105	48	3
SI_	105	48	3	96	48	7
TAP	105	144	2
TAP	105	192	1
STR	105	240	0
SXL	105	240	0	96	48	2
SXR	105	240	0	96	48	6
XTP	106	48	7
XTP	106	96	7
STR	106	192	1
SI_	106	192	1	96	48	5
TAP	106	192	6
TAP	106	288	7
STR	106	336	7
SI_	106	336	7	96	48	2
STR	107	48	4
SI_	107	48	4	96	48	0
TAP	107	144	5
HLD	107	192	5	192
TAP	107	288	1
HLD	107	336	1	48
TTP	108	48	2	E	0	M1
TTP	108	48	6	E	0	M1
TTP	108	96	0	E	0	M1
TTP	108	96	4	E	0	M1
XTP	108	192	7
TAP	108	216	6
TAP	108	240	5
TTP	108	264	2	B	0	M1
TTP	108	288	3	B	0	M1
TTP	108	312	4	B	0	M1
TAP	108	336	6
TAP	108	360	5
TAP	109	0	4
TTP	109	24	0	B	0	M1
TTP	109	48	1	B	0	M1
TTP	109	72	2	B	0	M1
TAP	109	96	7
TAP	109	120	6
TAP	109	144	5
XTP	109	192	0
TAP	109	216	1
TAP	109	240	2
TTP	109	264	5	B	0	M1
TTP	109	288	4	B	0	M1
TTP	109	312	3	B	0	M1
TAP	109	336	1
TAP	109	360	2
TAP	110	0	3
TTP	110	24	7	B	0	M1
TTP	110	48	6	B	0	M1
TTP	110	72	5	B	0	M1
TAP	110	96	0
TAP	110	120	1
TAP	110	144	2
XTP	110	192	7
TAP	110	216	6
TAP	110	240	5
TTP	110	264	2	E	0	M1
TTP	110	288	3	E	0	M1
TTP	110	312	4	E	0	M1
TAP	110	336	6
TAP	110	360	5
TAP	111	0	4
TTP	111	24	0	E	0	M1
TTP	111	48	1	E	0	M1
TTP	111	72	2	E	0	M1
TAP	111	96	7
TAP	111	120	6
TAP	111	144	5
XTP	111	192	0
TAP	111	216	1
TAP	111	240	2
TTP	111	264	6	E	0	M1
TTP	111	288	5	E	0	M1
TTP	111	312	4	E	0	M1
TAP	111	336	1
TAP	111	360	2
TAP	112	0	3
TTP	112	24	0	E	0	M1
TTP	112	48	7	E	0	M1
TTP	112	72	6	E	0	M1
TAP	112	96	0
TAP	112	120	1
TAP	112	144	2
TTP	112	192	0	C	0	M1
TTP	112	192	1	B	0	M1
TTP	112	192	6	B	0	M1
TAP	112	288	5
TAP	112	336	4
TAP	113	0	5
TAP	113	48	2
TAP	113	96	5
TAP	113	144	0
TAP	113	192	5
TAP	113	192	7
TAP	113	288	2
TAP	113	288	3
TAP	113	336	2
STR	113	336	3
SI_	113	336	3	96	48	7
STR	114	48	0
SCR	114	48	0	96	192	7
HLD	114	144	0	192
TAP	115	48	1
TAP	115	48	6
TAP	115	96	1
TAP	115	96	6
XTP	115	192	5
TAP	115	224	5
TAP	115	256	5
XTP	115	288	4
TAP	115	320	4
TAP	115	352	4
XTP	116	0	3
TAP	116	32	3
TAP	116	64	3
XTP	116	96	2
TAP	116	128	2
TAP	116	160	2
BRK	116	192	1
BST	116	192	6
SUL	116	192	6	96	192	1
TAP	117	0	0
TAP	117	96	0
HLD	117	192	0	128
HLD	117	320	7	128
TAP	118	64	6
TAP	118	128	5
STR	118	192	4
SI_	118	192	4	96	96	1
TAP	118	288	0
STR	119	0	0
SI_	119	0	0	96	96	5
TAP	119	96	3
STR	119	192	3
SI_	119	192	3	96	96	6
TAP	119	288	7
STR	120	0	7
SI_	120	0	7	96	96	2
TAP	120	96	4
XST	120	192	4
SCR	120	192	4	96	192	3
SUR	120	192	4	96	192	3
HLD	121	192	0	96
HLD	121	192	2	96
HLD	122	0	5	96
HLD	122	0	7	96
HLD	122	192	3	96
HLD	122	192	4	288
XTP	122	300	2
XTP	122	312	1
XTP	122	324	0
XTP	122	336	7
XTP	122	348	6
XTP	122	360	5
XHO	123	0	3	288
XTP	123	108	5
XTP	123	120	6
XTP	123	132	7
XTP	123	144	0
XTP	123	156	1
XTP	123	168	2
XHO	123	192	4	192
XTP	123	300	2
XTP	123	312	1
XTP	123	324	0
XTP	123	336	7
XTP	123	348	6
XTP	123	360	5
XTP	124	0	3
TAP	124	192	4
TAP	124	192	6
TAP	124	240	5
TAP	124	288	5
TAP	124	336	0
TAP	124	336	6
TAP	125	0	7
TAP	125	48	7
XST	125	96	0
SCL	125	96	0	96	192	1
XTP	125	96	2
TTP	125	288	0	B	0	M1
TTP	125	304	7	B	0	M1
TTP	125	320	6	B	0	M1
TTP	125	336	5	B	0	M1
TTP	125	352	4	B	0	M1
TTP	125	368	3	B	0	M1
TTP	126	0	2	B	0	M1
XTP	126	96	0
XTP	126	96	7
TAP	126	192	1
TAP	126	192	3
TAP	126	240	2
TAP	126	288	2
TAP	126	336	1
TAP	126	336	7
TAP	127	0	0
TAP	127	48	0
XTP	127	96	5
XST	127	96	7
SCR	127	96	7	96	192	6
TTP	127	288	7	B	0	M1
TTP	127	304	0	B	0	M1
TTP	127	320	1	B	0	M1
TTP	127	336	2	B	0	M1
TTP	127	352	3	B	0	M1
TTP	127	368	4	B	0	M1
TTP	128	0	5	B	0	M1
BRK	128	96	0
BRK	128	96	7
TAP	128	288	3
TAP	128	288	5
TAP	129	0	2
TAP	129	0	4
TAP	129	96	3
TAP	129	96	6
TAP	129	192	1
TAP	129	192	4
TAP	129	288	3
TAP	129	288	7
XTP	130	0	0
XTP	130	0	4
TAP	130	12	1
TAP	130	24	2
TAP	130	36	3
TAP	130	48	4
TAP	130	60	5
TAP	130	72	6
TAP	130	84	7
TAP	130	96	0
TAP	130	108	1
TAP	130	120	2
TAP	130	132	3
TAP	130	144	4
TAP	130	156	5
TAP	130	168	6
TAP	130	180	7
XHO	130	192	0	384
XTP	130	192	4
TTP	131	0	0	B	0	M1
TTP	131	12	1	B	0	M1
TTP	131	24	2	B	0	M1
TTP	131	36	3	B	0	M1
TTP	131	48	4	B	0	M1
TTP	131	60	5	B	0	M1
TTP	131	72	6	B	0	M1
TTP	131	84	7	B	0	M1
TTP	131	96	0	E	0	M1
TTP	131	108	1	E	0	M1
TTP	131	120	2	E	0	M1
TTP	131	132	3	E	0	M1
TTP	131	144	4	E	0	M1
TTP	131	156	5	E	0	M1
TTP	131	168	6	E	0	M1
TTP	131	180	7	E	0	M1
TAP	132	192	2
TAP	132	192	7
TAP	132	208	3
TAP	132	224	4
TAP	132	288	6
TAP	133	0	1
TAP	133	0	5
TAP	133	16	2
TAP	133	32	3
TAP	133	96	6
TAP	133	192	0
TAP	133	192	7
TAP	133	208	1
TAP	133	224	2
TAP	133	288	6
TAP	134	0	5
TAP	134	96	4
TAP	134	192	0
TAP	134	192	5
TAP	134	208	4
TAP	134	224	3
TAP	134	288	1
TAP	135	0	2
TAP	135	0	6
TAP	135	16	5
TAP	135	32	4
TAP	135	96	1
TAP	135	192	0
TAP	135	192	7
TAP	135	208	6
TAP	135	224	5
TTP	135	288	1	B	0	M1
TTP	135	312	6	B	0	M1
TTP	135	336	2	B	0	M1
TTP	135	360	5	B	0	M1
THO	136	0	0	96	C	0	M1
TAP	136	192	0
HLD	136	192	1	96
TAP	136	288	0
TAP	137	0	2
HLD	137	0	3	96
TAP	137	96	2
TAP	137	192	6
HLD	137	192	7	96
TAP	137	288	6
TAP	138	0	4
HLD	138	0	5	96
TAP	138	96	4
HLD	138	192	2	192
TAP	138	192	3
TTP	138	288	1	E	0	M1
TTP	138	304	1	B	0	M1
TTP	138	320	2	B	0	M1
TTP	138	336	3	E	0	M1
HLD	139	0	5	192
TTP	139	96	7	E	0	M1
TTP	139	112	6	B	0	M1
TTP	139	128	5	B	0	M1
TTP	139	144	5	E	0	M1
XST	139	192	3
SI_	139	192	3	96	48	7
TAP	140	0	1
TAP	140	0	5
TAP	140	48	2
TAP	140	48	6
TAP	140	96	1
TAP	140	96	5
TAP	140	144	2
TAP	140	144	6
HLD	140	192	1	96
HLD	140	192	5	96
HLD	140	336	3	96
HLD	140	336	7	96
HLD	141	96	0	96
HLD	141	96	4	96
HLD	141	240	2	96
HLD	141	240	6	96
HLD	142	0	3	48
HLD	142	0	5	48
HLD	142	96	2	48
HLD	142	96	4	48
HLD	142	192	3	48
HLD	142	192	6	48
HLD	142	288	1	48
HLD	142	288	4	48
HLD	143	0	3	48
HLD	143	0	7	48
HLD	143	96	0	48
HLD	143	96	4	48
BRK	143	192	2
BRK	143	192	6
TAP	144	0	0
TAP	144	32	0
TAP	144	64	0
TAP	144	96	0
TAP	144	128	0
TAP	144	160	0
TAP	144	192	0
TAP	144	224	0
TAP	144	256	0
TAP	144	288	0
TAP	144	320	0
TAP	144	352	0
XTP	145	0	0
XTP	145	12	1
XTP	145	24	2
XTP	145	36	3
XTP	145	48	4
XTP	145	60	5
XTP	145	72	6
XTP	145	84	7
XST	145	96	0
SF_	145	96	0	96	48	4
BRK	145	192	0
TTP	145	204	0	B	0	M1
TTP	145	216	0	C	1	M1
TTP	145	228	4	B	0	M1

T_REC_TAP	629
T_REC_BRK	19
T_REC_XTP	111
T_REC_HLD	83
T_REC_XHO	3
T_REC_STR	41
T_REC_BST	3
T_REC_XST	20
T_REC_TTP	238
T_REC_THO	1
T_REC_SLD	66
T_REC_ALL	1214
T_NUM_TAP	1039
T_NUM_BRK	22
T_NUM_HLD	87
T_NUM_SLD	66
T_NUM_ALL	1214
T_JUDGE_TAP	1061
T_JUDGE_HLD	271
T_JUDGE_SLD	66
T_JUDGE_ALL	1398
TTM_EACHPAIRS	169
TTM_SCR_TAP	519500
TTM_SCR_BRK	57200
TTM_SCR_HLD	87000
TTM_SCR_SLD	99000
TTM_SCR_ALL	762700
TTM_SCR_S	737700
TTM_SCR_SS	760500
TTM_RAT_ACV	10028

