VERSION	0.00.00	1.03.00
FES_MODE	0
BPM_DEF	238.000	238.000	238.000	238.000
MET_DEF	4	4
RESOLUTION	384
CLK_DEF	384
COMPATIBLE_CODE	MA2

BPM	0	0	238.000
MET	0	0	4	4
MET	11	0	4	2
MET	11	192	4	4
MET	15	192	4	2
MET	16	0	4	4
MET	53	0	4	2
MET	53	192	4	4

HLD	3	0	2	192
TAP	3	192	3
TAP	3	288	3
HLD	4	0	1	192
TAP	4	192	4
HLD	5	0	5	192
TAP	5	192	4
TAP	5	288	4
HLD	6	0	6	192
TAP	6	192	3
HLD	7	0	2	192
TAP	7	192	3
TAP	7	288	3
HLD	8	0	1	192
TAP	8	192	3
TAP	8	288	3
HLD	9	0	0	192
TAP	9	192	3
TAP	9	288	3
HLD	10	0	1	192
THO	10	192	0	192	C	1	M1
HLD	11	192	1	192
TAP	12	0	0
TAP	12	96	0
HLD	12	192	2	192
TAP	13	0	7
HLD	13	192	6	192
TAP	14	0	7
TAP	14	96	7
HLD	14	192	5	192
TAP	15	0	0
BRK	15	192	0
BRK	15	192	7
BRK	15	288	0
BRK	15	288	7
TAP	16	0	1
HLD	16	96	1	96
TAP	16	192	2
HLD	16	288	2	96
TAP	17	0	3
HLD	17	96	3	96
TAP	17	192	0
TAP	17	288	2
TAP	17	288	7
TAP	18	0	6
HLD	18	96	6	96
TAP	18	192	5
HLD	18	288	5	96
TAP	19	0	4
HLD	19	96	4	96
TAP	19	192	7
TAP	19	288	0
TAP	19	288	5
STR	20	0	1
SI_	20	0	1	96	48	4
STR	20	144	7
SI_	20	144	7	96	48	3
STR	20	288	1
SI_	20	288	1	96	48	5
STR	21	48	6
SI_	21	48	6	96	48	3
TAP	21	192	2
TAP	21	288	1
TAP	21	288	3
TAP	22	0	0
TAP	22	96	7
TAP	22	192	4
TAP	22	192	6
TAP	22	288	5
TAP	23	0	2
TAP	23	0	4
TAP	23	96	1
TAP	23	144	1
TAP	23	240	6
TAP	23	288	6
TAP	24	0	3
TAP	24	0	4
TAP	24	48	3
TAP	24	48	4
TAP	24	144	2
TAP	24	144	5
BRK	24	192	2
BRK	24	192	5
BRK	24	288	0
BRK	24	288	7
BST	25	0	1
SCL	25	0	1	96	480	2
BRK	25	0	6
THO	27	0	0	384	C	1	M1
STR	29	0	1
SCR	29	0	1	96	144	4
TAP	29	0	7
TAP	30	0	0
STR	30	0	6
SCL	30	0	6	96	144	3
TAP	31	0	1
TAP	31	96	3
TAP	31	192	6
STR	31	288	4
SCR	31	288	4	96	288	3
TAP	33	0	3
TAP	33	0	4
HLD	33	96	0	96
HLD	33	96	1	96
TAP	33	288	3
TAP	33	288	4
HLD	34	0	6	96
HLD	34	0	7	96
TAP	34	192	3
TAP	34	192	4
STR	34	288	1
SCR	34	288	1	96	576	7
STR	34	288	6
SCL	34	288	6	96	576	0
TAP	37	0	2
HLD	37	0	3	384
HLD	38	0	4	384
HLD	39	0	5	384
TTP	39	192	4	E	0	M1
TAP	40	0	3
TAP	40	192	4
HLD	41	0	4	384
TAP	41	0	5
HLD	42	0	3	384
HLD	43	0	2	384
TTP	43	192	4	E	0	M1
TAP	44	0	4
TAP	44	192	3
HLD	45	0	3	384
TAP	45	0	4
HLD	46	0	2	384
HLD	47	0	1	384
TTP	47	192	0	C	0	M1
TAP	48	0	0
TAP	48	192	7
TAP	49	0	0
HLD	49	0	7	384
TTP	49	192	6	E	0	M1
HLD	50	0	0	576
TTP	50	192	2	E	0	M1
HLD	51	0	7	192
XTP	52	0	0
XTP	52	48	7
XTP	52	96	0
XTP	52	144	7
XTP	52	192	0
XTP	52	288	1
XTP	52	288	6
TAP	53	0	3
TAP	53	0	4
BRK	53	96	2
BRK	53	96	6
TAP	53	192	0
TAP	53	288	2
TAP	53	288	3
TAP	54	0	1
TAP	54	48	1
TAP	54	96	3
TAP	54	192	2
TAP	54	192	4
TAP	54	288	0
TAP	55	0	3
TAP	55	0	5
TAP	55	96	7
TAP	55	192	6
TAP	55	288	4
TAP	55	288	5
TAP	56	0	6
TAP	56	48	6
TAP	56	96	4
TAP	56	192	3
TAP	56	192	5
TAP	56	288	7
TAP	57	0	2
TAP	57	0	4
TAP	57	96	0
TAP	57	192	1
TAP	57	288	2
TAP	57	288	3
TAP	58	0	1
TAP	58	48	1
TAP	58	96	3
TAP	58	192	2
TAP	58	192	4
TAP	58	288	0
TAP	59	0	3
TAP	59	0	5
TAP	59	96	7
TAP	59	192	6
TAP	59	288	4
TAP	59	288	5
TAP	60	0	6
TAP	60	48	6
TAP	60	96	4
TAP	60	192	3
TAP	60	192	5
TAP	60	288	1
TAP	60	288	7
BRK	61	0	2
BRK	61	0	6
HLD	61	192	5	96
TAP	61	288	4
HLD	61	336	4	96
TAP	62	48	7
TAP	62	96	7
HLD	62	192	2	96
TAP	62	288	3
HLD	62	336	3	96
TAP	63	48	0
TAP	63	96	0
TAP	63	192	2
TAP	63	192	7
TAP	63	288	6
TAP	64	0	0
TAP	64	0	5
TAP	64	96	1
TAP	64	192	2
TAP	64	192	4
TAP	64	288	0
TAP	64	288	7
BRK	65	0	1
BRK	65	0	6
HLD	65	192	1	96
TAP	65	288	0
HLD	65	336	0	96
TAP	66	48	3
TAP	66	96	3
HLD	66	192	6	96
TAP	66	288	7
HLD	66	336	7	96
TAP	67	48	4
TAP	67	96	4
TAP	67	192	0
TAP	67	288	1
TAP	67	288	3
TAP	68	0	7
TAP	68	96	4
TAP	68	96	6
TAP	68	192	3
TAP	68	192	4
TAP	68	288	0
TAP	68	336	0
STR	69	48	6
SCL	69	48	6	96	144	1
TAP	69	48	7
BRK	70	0	0
TAP	70	192	5
TAP	70	288	5
TAP	71	0	3
STR	71	96	3
SXL	71	96	3	96	240	4
TAP	72	192	2
TAP	72	288	2
TAP	73	0	4
STR	73	96	4
SXR	73	96	4	96	240	3
TAP	74	192	5
TAP	74	288	5
TAP	75	0	3
TAP	75	96	3
TAP	75	192	4
TAP	75	288	4
TAP	76	0	2
STR	76	192	5
SCR	76	192	5	96	192	0
STR	77	192	2
SCL	77	192	2	96	192	7
STR	78	192	5
SUR	78	192	5	96	192	2
TTP	79	192	0	B	0	M1
TTP	79	192	1	E	0	M1
TTP	80	0	4	B	0	M1
TTP	80	0	5	E	0	M1
TAP	80	192	2
HLD	80	288	2	96
TAP	81	0	3
HLD	81	96	3	96
TAP	81	192	4
HLD	81	288	4	96
TAP	82	0	5
HLD	82	96	5	96
TAP	82	192	6
HLD	82	288	6	96
TAP	83	0	7
HLD	83	96	7	96
TAP	83	192	0
TAP	83	288	0
TAP	84	0	0
TAP	84	0	7
BRK	84	96	1
BRK	84	96	6
STR	84	192	2
SI_	84	192	2	96	48	7
STR	84	336	4
SI_	84	336	4	96	48	0
STR	85	96	3
SI_	85	96	3	96	48	7
STR	85	240	5
SI_	85	240	5	96	48	0
TAP	86	0	2
TAP	86	96	1
TAP	86	96	3
TAP	86	192	0
TAP	86	288	7
TAP	87	0	4
TAP	87	0	6
TAP	87	96	5
HLD	87	192	1	192
HLD	87	192	6	192
BRK	88	96	0
BRK	88	96	7
XTP	88	192	6
XTP	88	240	6
XTP	88	288	4
XTP	88	336	4
XTP	89	0	3
XTP	89	48	3
XTP	89	96	1
XTP	89	144	1
THO	89	192	0	192	C	1	M1
TAP	90	192	1
TAP	90	192	6
TAP	90	288	7
TAP	90	336	7
TAP	91	48	3
TAP	91	96	3
TAP	91	192	1
TAP	91	192	4
TAP	91	240	1
TAP	91	240	4
TAP	91	336	3
TAP	91	336	6
BRK	92	0	3
BRK	92	0	6
BRK	92	96	0
BRK	92	96	7
BRK	92	192	3
BST	92	192	4
SCR	92	192	4	96	480	3
STR	94	192	1
SCR	94	192	1	96	144	4
TAP	94	192	7
TAP	95	192	0
STR	95	192	6
SCL	95	192	6	96	144	3
TAP	96	192	3
TAP	96	192	4
HLD	96	288	6	96
HLD	96	288	7	96
TAP	97	96	3
TAP	97	96	4
HLD	97	192	0	96
HLD	97	192	1	96
TAP	98	0	3
TAP	98	0	4
STR	98	96	1
SCL	98	96	1	96	480	4
STR	98	96	6
SCR	98	96	6	96	480	3
BRK	100	96	0
BRK	100	96	7
TAP	100	192	2
TAP	100	192	5
TAP	100	288	7
TAP	100	336	7
STR	101	48	1
SCL	101	48	1	96	240	4
TAP	101	48	3
TAP	102	96	2
TAP	102	96	3
TAP	102	192	1
TAP	102	192	4
TAP	102	288	0
TAP	102	336	0
TAP	103	48	6
TAP	103	48	7
TAP	103	144	0
TAP	103	144	5
TAP	103	240	4
TAP	103	288	4
TAP	103	336	2
TAP	104	0	3
BRK	104	96	1
BRK	104	96	5
HLD	104	192	6	96
TAP	104	288	7
STR	104	336	7
SI_	104	336	7	96	48	3
TAP	105	48	5
TAP	105	96	5
HLD	105	192	1	96
TAP	105	288	0
STR	105	336	0
SI_	105	336	0	96	48	4
TAP	106	48	2
TAP	106	96	2
TAP	106	192	5
TAP	106	240	4
TAP	106	288	6
HLD	106	336	6	96
TAP	107	48	7
TAP	107	144	0
TAP	107	144	5
TAP	107	192	0
TAP	107	192	5
TAP	107	288	0
TAP	107	288	1
BRK	108	0	2
BRK	108	0	7
TAP	108	192	2
TAP	108	192	5
TAP	108	288	0
TAP	108	336	0
TAP	109	48	4
STR	109	48	6
SCR	109	48	6	96	240	3
TAP	110	96	4
TAP	110	96	5
TAP	110	192	3
TAP	110	192	6
TAP	110	288	7
TAP	110	336	7
TAP	111	48	1
TAP	111	96	0
TAP	111	144	2
TAP	111	192	2
TAP	111	288	4
TAP	111	336	4
TAP	112	48	2
TAP	112	48	5
TAP	112	96	2
TAP	112	96	5
HLD	112	192	6	96
TAP	112	288	4
STR	112	336	4
SI_	112	336	4	96	48	0
TAP	113	48	5
TAP	113	96	5
HLD	113	192	1	96
TAP	113	288	3
STR	113	336	3
SI_	113	336	3	96	48	7
TAP	114	48	2
TAP	114	96	2
TAP	114	192	5
TAP	114	240	4
TAP	114	288	6
TAP	115	0	2
TAP	115	48	3
TAP	115	96	1
STR	115	192	0
SI_	115	192	0	96	48	3
STR	115	192	7
SI_	115	192	7	96	48	4
BRK	116	0	2
BRK	116	0	5
STR	116	192	5
SCR	116	192	5	96	288	2
STR	117	192	4
SCR	117	192	4	96	192	1
HLD	118	192	5	192
HLD	119	0	7	192
HLD	119	192	0	192
TAP	120	0	1
STR	120	192	2
SCL	120	192	2	96	288	5
STR	121	192	3
SCL	121	192	3	96	192	6
HLD	122	192	2	192
HLD	123	0	0	192
HLD	123	192	7	192
TAP	124	0	5
TAP	124	192	3
TAP	124	192	4
TAP	124	288	5
TAP	124	336	5
TAP	125	48	1
STR	125	96	1
SF_	125	96	1	96	144	5
TAP	126	192	0
TAP	126	192	7
TAP	126	288	1
TAP	126	336	1
TAP	127	48	5
STR	127	96	5
SF_	127	96	5	96	144	1
BRK	128	96	1
BRK	128	96	6
TAP	128	288	4
TAP	129	0	4
TAP	129	96	3
TAP	129	192	3
TAP	129	288	3
TAP	129	288	4
TAP	130	0	2
TAP	130	0	5
TAP	130	96	1
TAP	130	96	6
STR	130	192	0
SCR	130	192	0	96	480	7
STR	130	192	7
SCL	130	192	7	96	480	0
TAP	132	192	6
HLD	132	288	6	96
TAP	133	0	7
TAP	133	96	0
HLD	133	192	5	192
TAP	133	288	7
TAP	134	0	0
TAP	134	192	1
HLD	134	288	1	96
TAP	135	0	0
TAP	135	96	7
HLD	135	192	2	192
TAP	135	288	0
TAP	136	0	7
TAP	136	192	5
HLD	136	288	5	96
TAP	137	0	6
HLD	137	96	6	96
TAP	137	192	7
HLD	137	288	7	96
TAP	138	0	4
TAP	138	96	3
TAP	138	96	6
TAP	138	192	2
HLD	138	288	2	96
TAP	139	0	1
HLD	139	96	1	96
TAP	139	192	0
HLD	139	288	0	96
TAP	140	0	3
TAP	140	96	1
TAP	140	96	4
STR	140	192	5
SI_	140	192	5	96	48	0
STR	140	336	3
SI_	140	336	3	96	48	7
STR	141	96	4
SI_	141	96	4	96	48	0
STR	141	240	2
SI_	141	240	2	96	48	7
TAP	142	0	5
TAP	142	96	4
TAP	142	96	6
TAP	142	192	0
TAP	142	192	7
TAP	142	288	1
TAP	142	288	3
TAP	143	0	3
TAP	143	0	4
TAP	143	96	2
TAP	143	96	5
BST	143	192	1
SCL	143	192	1	96	480	2
TAP	143	192	6
BRK	145	192	1
BRK	145	192	6

T_REC_TAP	327
T_REC_BRK	37
T_REC_XTP	15
T_REC_HLD	75
T_REC_XHO	0
T_REC_STR	43
T_REC_BST	3
T_REC_XST	0
T_REC_TTP	9
T_REC_THO	3
T_REC_SLD	46
T_REC_ALL	558
T_NUM_TAP	394
T_NUM_BRK	40
T_NUM_HLD	78
T_NUM_SLD	46
T_NUM_ALL	558
T_JUDGE_TAP	434
T_JUDGE_HLD	282
T_JUDGE_SLD	46
T_JUDGE_ALL	762
TTM_EACHPAIRS	107
TTM_SCR_TAP	197000
TTM_SCR_BRK	104000
TTM_SCR_HLD	78000
TTM_SCR_SLD	69000
TTM_SCR_ALL	448000
TTM_SCR_S	430700
TTM_SCR_SS	444000
TTM_RAT_ACV	10090

