VERSION	0.00.00	1.03.00
FES_MODE	0
BPM_DEF	238.000	238.000	238.000	238.000
MET_DEF	4	4
RESOLUTION	384
CLK_DEF	384
COMPATIBLE_CODE	MA2

BPM	0	0	238.000
MET	0	0	4	4
MET	11	0	4	2
MET	11	192	4	4
MET	15	192	4	2
MET	16	0	4	4
MET	53	0	4	2
MET	53	192	4	4

HLD	3	0	2	384
TAP	4	0	3
HLD	5	0	5	384
TAP	6	0	4
HLD	7	0	2	384
TAP	8	0	3
HLD	9	0	4	384
TAP	10	0	3
TAP	10	192	3
XTP	11	0	2
XTP	11	0	5
HLD	11	192	1	384
TAP	12	192	0
TAP	13	0	7
HLD	13	192	6	384
TAP	14	192	7
TAP	15	0	0
TAP	15	192	1
TAP	15	192	7
HLD	16	0	2	384
TAP	16	192	3
TAP	17	0	3
TAP	17	192	4
HLD	18	0	5	384
TAP	18	192	4
TAP	19	0	4
XTP	19	192	3
BST	20	0	3
SI_	20	0	3	96	480	0
BST	20	0	4
SI_	20	0	4	96	480	7
XHO	22	0	1	192
XHO	22	0	6	192
XTP	23	0	1
XTP	23	0	7
XTP	23	144	1
XTP	23	144	7
XTP	23	288	0
XTP	23	288	6
XTP	24	48	0
XTP	24	48	6
XTP	24	192	7
XTP	24	288	7
XST	25	0	7
SI_	25	0	7	96	288	2
SI_	25	0	7	96	288	4
THO	27	0	0	384	C	0	L1
TTP	29	0	6	E	0	L1
TTP	29	192	5	B	0	L1
TTP	30	0	4	B	0	L1
TTP	30	192	4	E	0	L1
TTP	31	0	3	B	0	L1
TTP	31	192	2	B	0	L1
TTP	32	0	2	E	0	L1
TTP	32	192	1	B	0	L1
TTP	32	192	6	B	0	L1
XTP	33	0	0
XTP	33	96	0
XTP	33	192	0
XTP	33	288	7
XTP	34	0	7
XTP	34	96	7
XTP	34	192	0
XTP	34	192	7
BST	34	288	1
SI_	34	288	1	96	384	4
BST	34	288	6
SI_	34	288	6	96	384	3
HLD	37	0	2	384
HLD	38	0	3	384
HLD	39	0	4	384
TAP	40	0	5
TAP	40	192	5
XHO	41	0	6	384
HLD	42	0	7	384
HLD	43	0	0	384
TAP	44	0	1
HLD	45	0	2	192
TAP	45	192	3
TAP	46	0	3
TAP	46	0	4
TAP	46	192	4
TAP	46	192	5
HLD	47	0	6	192
TAP	47	192	7
TAP	48	0	0
TAP	48	0	7
TAP	48	192	0
TAP	48	192	7
STR	49	0	1
SLR	49	0	1	96	480	0
STR	49	0	6
SLL	49	0	6	96	480	7
HLD	51	0	1	192
HLD	51	0	6	192
XTP	52	0	2
XTP	52	96	3
XTP	52	192	4
XTP	52	288	5
BRK	53	0	2
BRK	53	0	5
XST	53	192	6
SI_	53	192	6	96	240	3
TAP	54	192	2
TAP	54	288	2
TAP	55	0	2
STR	55	192	2
SI_	55	192	2	96	240	7
TAP	56	192	6
TAP	56	288	6
TAP	57	0	6
STR	57	192	5
SI_	57	192	5	96	240	0
TAP	58	192	1
TAP	58	288	1
TAP	59	0	1
STR	59	192	0
SI_	59	192	0	96	288	4
STR	59	192	7
SI_	59	192	7	96	288	3
XTP	61	0	2
XTP	61	0	5
TAP	61	192	2
TAP	61	288	2
TAP	62	0	2
TAP	62	0	3
TAP	62	192	5
TAP	62	288	5
TAP	63	0	4
TAP	63	0	5
TAP	63	192	6
TAP	63	288	6
TAP	64	0	6
TAP	64	0	7
TAP	64	192	0
TAP	64	288	0
TAP	65	0	1
TAP	65	0	7
TAP	65	192	0
TAP	65	288	0
TAP	66	0	1
TAP	66	96	1
TAP	66	192	2
TAP	66	288	2
TAP	67	0	2
TAP	67	0	3
TAP	67	192	4
TAP	67	288	4
TAP	68	0	5
TAP	68	96	5
TAP	68	192	6
TAP	68	288	6
TAP	69	0	6
TAP	69	0	7
HLD	69	192	0	96
HLD	69	192	7	96
XTP	70	0	1
XTP	70	0	6
TTP	70	192	1	B	0	L1
TTP	70	192	1	E	0	L1
TTP	71	192	5	B	0	L1
TTP	71	192	6	B	0	L1
TTP	72	192	3	B	0	L1
TTP	72	192	3	E	0	L1
TTP	73	192	4	B	0	L1
TTP	73	192	5	E	0	L1
TTP	74	192	4	E	0	L1
TTP	75	0	0	C	0	L1
TTP	75	192	0	E	0	L1
TTP	76	192	1	E	0	L1
TTP	77	0	0	C	0	L1
TTP	77	192	5	E	0	L1
TTP	78	0	6	E	0	L1
TTP	78	192	7	E	0	L1
TTP	79	0	0	C	0	L1
TTP	79	192	2	B	0	L1
TTP	79	192	3	B	0	L1
THO	80	192	0	384	C	0	L1
THO	82	192	0	384	C	1	L1
TTP	82	192	2	B	0	L1
TTP	82	192	5	B	0	L1
XST	84	192	0
SXL	84	192	0	96	864	3
XST	84	192	7
SXR	84	192	7	96	864	4
BRK	87	192	2
BRK	87	192	5
STR	88	192	3
SI_	88	192	3	96	336	0
STR	88	192	4
SI_	88	192	4	96	336	7
XTP	90	0	1
XTP	90	0	6
XTP	90	192	0
XTP	90	192	6
XTP	90	336	0
XTP	90	336	6
XTP	91	96	1
XTP	91	96	7
XTP	91	240	1
XTP	91	240	7
XTP	92	0	0
XTP	92	96	0
XST	92	192	0
SI_	92	192	0	96	336	3
SI_	92	192	0	96	336	5
TAP	94	0	4
XST	94	192	4
SI_	94	192	4	96	336	1
SI_	94	192	4	96	336	7
TAP	96	0	0
XTP	96	192	6
XTP	96	192	7
TAP	96	288	0
TAP	97	0	1
XTP	97	96	0
XTP	97	96	1
TAP	97	192	7
TAP	97	288	6
XTP	98	0	0
XTP	98	0	6
BST	98	96	0
SI_	98	96	0	96	336	3
BST	98	96	6
SI_	98	96	6	96	336	3
XTP	100	0	2
XTP	100	0	4
TAP	100	192	4
TAP	100	192	5
TAP	100	288	3
TAP	100	288	6
TAP	101	0	2
TAP	101	48	2
TAP	101	96	3
TAP	101	192	0
TAP	101	192	1
TAP	101	288	2
TAP	101	288	7
TAP	102	0	3
TAP	102	0	6
TAP	102	96	4
TAP	102	96	5
TAP	102	192	2
TAP	102	192	3
TAP	102	288	1
TAP	102	288	4
TAP	103	0	5
TAP	103	48	5
TAP	103	96	4
TAP	103	192	3
TAP	103	192	6
TAP	103	288	3
TAP	103	288	6
XTP	104	0	2
XTP	104	0	7
TAP	104	192	1
TAP	104	288	0
TAP	104	288	1
TAP	105	0	2
TAP	105	96	2
TAP	105	96	3
TAP	105	192	5
TAP	105	288	4
TAP	105	288	5
TAP	106	0	6
TAP	106	96	6
TAP	106	96	7
TAP	106	192	0
TAP	106	240	0
TAP	106	288	0
TAP	107	0	7
TAP	107	48	7
TAP	107	96	7
TAP	107	192	0
TAP	107	192	7
TAP	107	288	1
TAP	107	288	6
XTP	108	0	2
XTP	108	0	5
STR	108	192	3
SI_	108	192	3	96	192	0
STR	109	192	7
SI_	109	192	7	96	192	4
STR	110	192	3
SI_	110	192	3	96	192	0
TAP	111	192	7
TAP	111	288	7
XTP	112	0	1
XTP	112	0	6
TAP	112	192	5
TAP	112	288	4
TAP	112	288	6
TAP	113	0	2
TAP	113	96	1
TAP	113	96	3
TAP	113	192	6
TAP	113	288	5
TAP	113	288	7
TAP	114	0	1
TAP	114	96	0
TAP	114	96	2
TAP	114	192	3
TAP	114	240	3
TAP	114	288	3
TAP	115	0	4
TAP	115	48	4
TAP	115	96	4
TAP	115	192	3
TAP	115	192	4
TAP	115	288	2
TAP	115	288	5
BRK	116	0	1
BRK	116	0	6
HLD	116	192	1	192
HLD	117	0	2	192
TAP	117	192	3
TAP	118	0	3
TAP	118	0	4
HLD	118	192	6	192
HLD	119	0	5	192
TAP	119	192	4
TAP	120	0	3
TAP	120	0	4
HLD	120	192	2	192
HLD	121	0	1	192
TAP	121	192	0
TAP	122	0	0
TAP	122	0	7
STR	122	192	1
SLR	122	192	1	96	336	7
STR	122	192	6
SLL	122	192	6	96	336	0
XTP	124	0	1
XTP	124	0	6
XHO	124	192	2	144
XHO	124	192	3	144
XTP	125	96	1
XTP	125	96	4
TAP	125	288	2
TAP	126	0	2
TAP	126	0	3
XHO	126	192	4	144
XHO	126	192	5	144
XTP	127	96	3
XTP	127	96	6
TAP	127	288	5
TAP	128	0	5
BST	128	96	5
SCR	128	96	5	96	384	2
TAP	130	0	3
TAP	130	0	4
TTP	130	192	0	C	0	L1
TTP	130	192	1	B	0	L1
TTP	130	192	6	B	0	L1
TTP	132	192	1	B	0	L1
TTP	133	0	2	B	0	L1
TTP	133	192	3	B	0	L1
TTP	134	0	4	B	0	L1
TTP	134	192	5	B	0	L1
TTP	135	0	6	B	0	L1
THO	135	192	0	192	C	0	L1
TTP	136	192	7	B	0	L1
TTP	136	192	7	E	0	L1
TTP	137	0	1	B	0	L1
TTP	137	0	1	E	0	L1
TTP	137	192	5	B	0	L1
TTP	137	192	6	B	0	L1
TTP	138	0	1	B	0	L1
TTP	138	0	2	B	0	L1
TTP	138	192	4	B	0	L1
TTP	138	192	5	E	0	L1
TTP	139	0	3	B	0	L1
TTP	139	0	3	E	0	L1
THO	139	192	0	192	C	1	L1
TTP	139	192	1	B	0	L1
TTP	139	192	2	B	0	L1
TTP	139	192	5	B	0	L1
TTP	139	192	6	B	0	L1
XST	140	192	0
SCR	140	192	0	96	672	7
XTP	143	0	0
XTP	143	0	1
HLD	143	192	2	384
HLD	143	192	7	768
TTP	145	192	0	C	1	L1

T_REC_TAP	164
T_REC_BRK	6
T_REC_XTP	63
T_REC_HLD	27
T_REC_XHO	7
T_REC_STR	13
T_REC_BST	7
T_REC_XST	7
T_REC_TTP	56
T_REC_THO	5
T_REC_SLD	30
T_REC_ALL	385
T_NUM_TAP	303
T_NUM_BRK	13
T_NUM_HLD	39
T_NUM_SLD	30
T_NUM_ALL	385
T_JUDGE_TAP	316
T_JUDGE_HLD	232
T_JUDGE_SLD	30
T_JUDGE_ALL	578
TTM_EACHPAIRS	79
TTM_SCR_TAP	151500
TTM_SCR_BRK	33800
TTM_SCR_HLD	39000
TTM_SCR_SLD	45000
TTM_SCR_ALL	269300
TTM_SCR_S	260000
TTM_SCR_SS	268000
TTM_RAT_ACV	10048

