VERSION	0.00.00	1.03.00
FES_MODE	0
BPM_DEF	238.000	238.000	238.000	238.000
MET_DEF	4	4
RESOLUTION	384
CLK_DEF	384
COMPATIBLE_CODE	MA2

BPM	0	0	238.000
MET	0	0	4	4
MET	11	0	4	2
MET	11	192	4	4
MET	15	192	4	2
MET	16	0	4	4
MET	53	0	4	2
MET	53	192	4	4

STR	3	0	0
SI_	3	0	0	96	672	3
STR	7	0	7
SI_	7	0	7	96	672	4
XTP	11	0	3
XTP	11	0	4
XST	11	192	3
SI_	11	192	3	96	672	0
XST	11	192	4
SI_	11	192	4	96	672	7
TTP	16	0	0	B	0	L1
TTP	17	0	7	B	0	L1
TTP	18	0	1	B	0	L1
TTP	19	0	6	B	0	L1
THO	20	0	0	1152	C	1	L1
XTP	25	0	0
XTP	25	0	7
TAP	29	0	0
TAP	30	0	0
TAP	31	0	7
TAP	32	0	7
HLD	33	0	1	672
HLD	33	0	6	672
TAP	37	0	3
TAP	38	0	3
TAP	39	0	4
TAP	40	0	4
TAP	41	0	5
TAP	42	0	5
TAP	43	0	6
TAP	43	192	6
TAP	44	0	6
TAP	45	0	7
TAP	46	0	7
TAP	47	0	0
TAP	48	0	0
TAP	49	0	1
TAP	50	0	1
TAP	51	0	2
TAP	51	192	2
HLD	52	0	2	384
HLD	52	0	3	384
TAP	53	192	2
TAP	54	0	2
TAP	54	192	2
TAP	55	192	3
TAP	56	0	3
TAP	56	192	3
TAP	57	192	4
TAP	58	0	4
TAP	58	192	4
TAP	59	192	5
TAP	60	0	5
TAP	60	192	4
TAP	60	192	5
TAP	61	192	6
TAP	62	0	6
TAP	62	192	6
TAP	63	192	7
TAP	64	0	7
TAP	64	192	7
TAP	65	192	0
TAP	66	0	0
TAP	66	192	1
TAP	67	0	1
TAP	67	192	2
TAP	68	0	2
TAP	68	192	3
TAP	68	192	4
BRK	69	192	3
BRK	69	192	4
TTP	70	192	5	B	0	L1
TTP	71	192	6	B	0	L1
TTP	72	192	7	B	0	L1
TTP	73	192	0	B	0	L1
TTP	74	192	1	B	0	L1
TTP	75	192	2	B	0	L1
HLD	76	192	3	384
HLD	78	192	4	384
TAP	80	192	3
TAP	80	192	4
TAP	81	192	3
TAP	81	192	4
TAP	82	192	2
TAP	82	192	5
TAP	83	192	2
TAP	83	192	5
HLD	84	192	1	1152
HLD	84	192	6	1152
THO	88	192	0	768	C	1	L1
BRK	92	192	0
BRK	92	192	7
STR	96	192	0
SI_	96	192	0	96	672	4
TAP	100	192	7
TAP	101	0	7
TAP	101	192	7
TAP	102	192	6
TAP	103	0	6
TAP	103	192	6
TAP	104	192	5
TAP	105	0	5
TAP	105	192	4
TAP	106	0	4
TAP	106	192	3
TAP	107	0	3
XTP	107	192	3
XTP	107	192	4
TAP	108	192	3
TAP	109	0	3
TAP	109	192	3
TAP	110	192	2
TAP	111	0	2
TAP	111	192	2
TAP	112	192	1
TAP	113	0	1
TAP	113	192	0
TAP	114	0	0
TAP	114	192	7
TAP	115	0	7
BRK	115	192	0
BRK	115	192	7
HLD	116	192	7	384
TAP	118	192	6
TAP	119	0	6
TAP	119	192	6
TAP	119	192	7
HLD	120	192	0	384
TAP	122	192	1
TAP	123	0	1
TAP	123	192	0
TAP	123	192	1
BRK	124	192	0
BRK	124	192	6
BRK	126	192	1
BRK	126	192	7
XHO	128	96	0	864
XHO	128	96	7	864
TTP	132	192	1	E	0	L1
TTP	133	192	7	E	0	L1
TTP	134	192	1	B	0	L1
TTP	135	192	6	B	0	L1
TTP	136	192	2	B	0	L1
TTP	137	192	5	B	0	L1
TTP	138	192	3	E	0	L1
TTP	139	192	5	E	0	L1
STR	140	192	3
SI_	140	192	3	96	672	0
STR	140	192	4
SI_	140	192	4	96	672	7
THO	143	192	0	768	C	1	L1

T_REC_TAP	88
T_REC_BRK	10
T_REC_XTP	6
T_REC_HLD	10
T_REC_XHO	2
T_REC_STR	5
T_REC_BST	0
T_REC_XST	2
T_REC_TTP	18
T_REC_THO	3
T_REC_SLD	7
T_REC_ALL	151
T_NUM_TAP	119
T_NUM_BRK	10
T_NUM_HLD	15
T_NUM_SLD	7
T_NUM_ALL	151
T_JUDGE_TAP	129
T_JUDGE_HLD	216
T_JUDGE_SLD	7
T_JUDGE_ALL	352
TTM_EACHPAIRS	22
TTM_SCR_TAP	59500
TTM_SCR_BRK	26000
TTM_SCR_HLD	15000
TTM_SCR_SLD	10500
TTM_SCR_ALL	111000
TTM_SCR_S	106700
TTM_SCR_SS	110000
TTM_RAT_ACV	10090

