VERSION	0.00.00	1.03.00
FES_MODE	0
BPM_DEF	200.000	200.000	200.000	160.000
MET_DEF	4	4
RESOLUTION	384
CLK_DEF	384
COMPATIBLE_CODE	MA2

BPM	0	0	200.000
BPM	105	0	160.000
MET	0	0	4	4

TAP	1	0	2
TAP	1	96	3
TAP	1	192	4
TTP	1	288	6	E	0	M1
TTP	1	300	5	B	0	M1
HLD	2	0	3	288
TAP	2	288	4
TAP	2	336	3
TAP	3	0	5
TAP	3	96	4
TAP	3	192	3
TAP	3	288	2
HLD	4	0	3	192
TAP	4	96	4
TAP	4	192	5
TAP	4	288	3
TAP	4	336	4
TAP	5	0	3
TAP	5	0	5
TAP	5	96	4
TAP	5	192	2
TAP	5	192	3
TAP	5	288	2
TAP	6	0	2
TAP	6	0	3
TAP	6	96	4
TAP	6	192	3
TAP	6	192	5
TAP	6	288	5
TAP	7	0	4
TAP	7	0	5
TAP	7	96	3
TAP	7	192	2
TAP	7	192	4
TAP	7	288	1
TAP	8	0	1
HLD	8	0	4	96
TTP	8	96	2	E	0	M1
TTP	8	108	2	B	0	M1
TTP	8	120	3	B	0	M1
TAP	8	192	5
TAP	8	240	5
TAP	8	288	4
TAP	8	336	4
TAP	9	0	3
STR	9	0	7
SCL	9	0	7	96	192	4
TAP	9	96	2
TAP	9	192	1
TAP	9	288	0
STR	10	0	0
SCR	10	0	0	96	192	3
TAP	10	0	4
TAP	10	96	5
TAP	10	192	6
TAP	10	288	7
TAP	11	0	3
STR	11	0	7
SCL	11	0	7	96	192	4
TAP	11	96	2
TAP	11	192	1
TAP	11	288	0
STR	12	0	0
SI_	12	0	0	96	192	4
TAP	12	0	4
STR	13	0	3
SCL	13	0	3	96	192	0
TAP	13	0	7
TAP	13	96	6
TAP	13	192	5
TAP	13	288	4
TAP	14	0	0
STR	14	0	4
SCR	14	0	4	96	192	7
TAP	14	96	1
TAP	14	192	2
TAP	14	288	3
STR	15	0	3
SXL	15	0	3	96	480	1
STR	15	0	7
SXL	15	0	7	96	480	5
STR	17	0	4
SF_	17	0	4	96	144	0
TAP	18	0	6
TAP	18	32	4
TAP	18	64	5
TAP	18	96	1
TAP	18	128	3
TAP	18	160	2
TAP	18	192	7
TAP	18	224	5
TAP	18	256	6
TAP	18	288	0
TAP	18	320	2
TAP	18	352	1
BST	19	0	2
SI_	19	0	2	96	48	7
BST	19	0	6
SI_	19	0	6	96	48	3
TAP	19	192	1
TAP	19	192	5
TAP	19	240	1
TAP	19	288	1
TAP	19	288	7
TAP	19	336	1
TAP	20	0	1
TAP	20	0	3
TAP	20	48	1
TAP	20	96	1
TAP	20	96	5
TAP	20	144	1
TAP	20	192	1
TAP	20	192	7
TAP	20	240	1
TTP	20	288	0	C	1	M1
TAP	20	288	1
BST	21	0	1
SI_	21	0	1	96	48	4
BST	21	0	5
SI_	21	0	5	96	48	0
TAP	21	192	2
HLD	21	192	6	24
HLD	21	240	6	24
TAP	21	288	0
HLD	21	288	6	24
HLD	21	336	6	24
TAP	22	0	4
HLD	22	0	6	24
HLD	22	48	6	24
TAP	22	96	2
HLD	22	96	6	24
HLD	22	144	6	24
TAP	22	192	0
HLD	22	192	6	24
HLD	22	240	6	24
TTP	22	288	0	C	1	M1
TAP	22	288	6
BST	23	0	3
SI_	23	0	3	96	48	0
BST	23	0	7
SI_	23	0	7	96	48	4
BRK	23	192	1
TAP	23	192	5
BRK	23	240	1
BRK	23	288	1
TAP	23	288	3
BRK	23	336	1
BRK	24	0	1
TAP	24	0	6
BRK	24	48	1
BRK	24	96	1
TAP	24	96	2
BRK	24	144	1
BRK	24	192	2
BRK	24	192	5
BRK	24	240	1
BRK	24	240	6
BRK	24	288	0
BRK	24	288	7
STR	25	0	6
SCL	25	0	6	96	48	4
TAP	25	48	7
TAP	25	96	6
TAP	25	144	0
STR	25	192	6
SI_	25	192	6	96	48	2
TAP	25	240	3
TAP	25	288	6
HLD	25	336	4	96
TAP	26	48	7
TAP	26	96	1
TAP	26	96	6
TAP	26	144	2
TAP	26	144	5
STR	26	192	3
SI_	26	192	3	96	48	0
STR	26	192	4
SI_	26	192	4	96	48	7
TAP	26	288	3
TAP	26	288	4
BST	27	0	2
SI_	27	0	2	96	48	7
BST	27	0	6
SI_	27	0	6	96	48	3
XTP	27	96	2
XTP	27	96	6
TAP	27	192	1
STR	27	192	5
SI_	27	192	5	96	48	3
TAP	27	240	1
TAP	27	288	1
TAP	27	288	5
TAP	27	336	1
TAP	28	0	1
STR	28	0	6
SI_	28	0	6	96	48	4
TAP	28	48	1
TAP	28	96	1
TAP	28	96	6
TAP	28	144	1
TAP	28	192	1
STR	28	192	7
SI_	28	192	7	96	48	3
TAP	28	240	1
TAP	28	288	1
TAP	28	288	7
TTP	28	292	0	C	1	M1
BST	29	0	1
SI_	29	0	1	96	48	4
BST	29	0	5
SI_	29	0	5	96	48	0
XTP	29	96	1
XTP	29	96	5
STR	29	192	2
SI_	29	192	2	96	48	4
HLD	29	192	6	24
HLD	29	240	6	24
TAP	29	288	2
HLD	29	288	6	24
HLD	29	336	6	24
STR	30	0	1
SI_	30	0	1	96	48	3
HLD	30	0	6	24
HLD	30	48	6	24
TAP	30	96	1
HLD	30	96	6	24
HLD	30	144	6	24
STR	30	192	0
SI_	30	192	0	96	48	4
HLD	30	192	6	24
HLD	30	240	6	24
TAP	30	288	0
TAP	30	288	6
TTP	30	292	0	C	1	M1
BST	31	0	3
SI_	31	0	3	96	48	0
BST	31	0	7
SI_	31	0	7	96	48	4
XTP	31	96	3
XTP	31	96	7
BRK	31	192	1
STR	31	192	5
SI_	31	192	5	96	48	3
BRK	31	240	1
BRK	31	288	1
TAP	31	288	5
BRK	31	336	1
BRK	32	0	1
STR	32	0	2
SI_	32	0	2	96	48	6
BRK	32	48	1
BRK	32	96	1
TAP	32	96	2
BRK	32	144	1
BRK	32	192	0
BRK	32	192	7
BRK	32	240	1
BRK	32	240	6
BRK	32	288	2
BRK	32	288	5
TAP	33	0	4
TAP	33	0	6
TAP	33	48	5
TAP	33	96	1
TAP	33	96	3
TAP	33	144	2
TAP	33	192	4
TAP	33	192	7
TAP	33	240	5
TAP	33	288	0
TAP	33	288	3
TAP	33	336	2
TAP	34	0	5
TAP	34	0	7
TAP	34	48	4
TAP	34	48	6
TAP	34	96	3
TAP	34	96	5
TAP	34	144	2
TAP	34	144	4
BRK	34	192	1
TAP	34	204	2
TAP	34	216	3
TAP	34	228	4
TAP	34	240	5
TAP	34	252	6
TAP	34	264	7
TAP	34	276	0
BRK	34	288	1
BRK	34	288	5
XTP	35	0	3
XTP	35	0	7
TAP	35	48	6
HLD	35	72	4	48
TAP	35	120	5
HLD	35	144	3	48
TAP	35	192	4
HLD	35	216	2	48
TAP	35	264	3
TAP	35	288	0
TAP	35	336	1
TAP	35	336	7
HLD	36	0	1	48
TAP	36	48	3
HLD	36	72	2	48
TAP	36	120	4
TAP	36	144	3
STR	36	192	4
SV_	36	192	4	96	48	1
STR	36	192	6
SV_	36	192	6	96	48	1
XTP	37	0	3
XTP	37	0	7
TAP	37	48	1
HLD	37	72	3	48
TAP	37	120	2
HLD	37	144	4	48
TAP	37	192	3
HLD	37	216	5	48
TAP	37	264	4
TAP	37	288	7
TAP	37	336	0
TAP	37	336	6
HLD	38	0	6	48
TAP	38	48	4
HLD	38	72	5	48
TAP	38	120	3
TAP	38	144	4
STR	38	192	1
SV_	38	192	1	96	48	6
STR	38	192	3
SV_	38	192	3	96	48	6
XST	39	0	0
SCL	39	0	0	96	48	5
XTP	39	0	5
XTP	39	24	1
XTP	39	48	2
XTP	39	72	3
XST	39	96	4
SCR	39	96	4	96	96	2
XTP	39	120	3
XTP	39	144	2
XTP	39	168	1
XTP	39	192	0
TAP	39	288	3
XTP	40	0	2
XST	40	0	7
SCR	40	0	7	96	48	2
XTP	40	24	6
XTP	40	48	5
XTP	40	72	4
XST	40	96	3
SCL	40	96	3	96	96	5
XTP	40	120	4
XTP	40	144	5
XTP	40	168	6
XTP	40	192	7
TAP	40	288	4
TAP	41	0	0
TAP	41	0	6
TAP	41	24	5
TAP	41	48	4
TAP	41	72	3
TAP	41	96	0
TAP	41	120	1
TAP	41	144	2
TAP	41	168	3
TAP	41	192	7
TAP	41	216	6
TAP	41	240	5
TAP	41	264	4
TAP	41	288	0
TAP	41	312	1
TAP	41	336	2
TAP	41	360	3
TAP	42	0	7
TAP	42	24	5
TAP	42	48	7
TAP	42	72	4
TAP	42	96	7
TAP	42	120	3
TAP	42	144	7
TAP	42	168	2
TAP	42	192	7
TAP	42	204	6
TAP	42	216	5
TAP	42	228	4
TAP	42	240	3
TAP	42	252	2
TAP	42	264	1
TAP	42	276	0
BRK	42	288	3
BRK	42	288	7
TAP	43	0	0
TAP	43	0	4
TAP	43	48	1
HLD	43	72	3	48
TAP	43	120	2
HLD	43	144	4	48
TAP	43	192	3
HLD	43	216	5	48
TAP	43	264	4
TAP	43	288	7
TAP	43	336	0
TAP	43	336	6
HLD	44	0	6	48
TAP	44	48	4
HLD	44	72	5	48
TAP	44	120	3
HLD	44	144	4	48
TAP	44	192	2
TAP	44	216	3
TAP	44	240	2
TAP	44	288	1
TAP	44	288	4
XTP	45	0	0
XTP	45	0	5
TAP	45	48	6
HLD	45	72	4	48
TAP	45	120	5
HLD	45	144	3	48
TAP	45	192	4
HLD	45	216	2	48
TAP	45	264	3
TAP	45	288	0
TAP	45	336	1
TAP	45	336	7
HLD	46	0	1	48
TAP	46	48	3
HLD	46	72	2	48
TAP	46	120	4
HLD	46	144	3	48
TAP	46	192	5
TAP	46	216	4
TAP	46	240	5
TAP	46	288	3
TAP	46	288	6
XTP	47	0	2
XST	47	0	7
SCR	47	0	7	96	48	2
XTP	47	24	6
XTP	47	48	5
XTP	47	72	4
XST	47	96	3
SCL	47	96	3	96	96	5
XTP	47	120	4
XTP	47	144	5
XTP	47	168	6
XTP	47	192	7
TTP	47	288	0	C	1	M1
XST	48	0	0
SCL	48	0	0	96	48	5
XTP	48	0	5
XTP	48	24	1
XTP	48	48	2
XTP	48	72	3
XST	48	96	4
SCR	48	96	4	96	96	2
XTP	48	120	3
XTP	48	144	2
XTP	48	168	1
XTP	48	192	0
TTP	48	288	0	C	1	M1
BRK	49	0	0
TAP	49	24	7
TAP	49	48	0
TAP	49	72	7
BRK	49	96	0
TAP	49	120	7
TAP	49	144	0
TAP	49	168	7
BRK	49	192	1
TAP	49	208	2
TAP	49	224	3
BRK	49	240	7
TAP	49	256	6
TAP	49	272	5
BRK	49	288	0
TAP	49	304	1
TAP	49	320	2
BRK	49	336	6
TAP	49	352	5
TAP	49	368	4
BRK	50	0	0
XHO	50	0	3	228
TAP	50	12	1
TAP	50	24	2
TAP	50	48	4
TAP	50	60	5
TAP	50	72	6
TAP	50	84	7
BRK	50	96	0
TAP	50	108	1
TAP	50	120	2
TAP	50	144	4
TAP	50	156	5
TAP	50	168	6
TAP	50	180	7
BRK	50	192	0
TAP	50	204	1
TAP	50	216	2
TAP	50	240	4
TAP	50	252	5
TAP	50	264	6
TAP	50	276	7
BRK	50	288	0
BRK	50	288	4
BRK	51	0	2
BRK	51	0	7
TAP	51	48	1
TAP	51	72	0
TAP	51	96	1
BRK	51	144	2
BRK	51	144	7
TAP	51	192	5
TAP	51	216	4
TAP	51	240	5
TAP	51	264	4
TAP	51	288	6
TAP	51	312	3
TAP	51	336	6
BRK	52	0	0
BRK	52	0	5
TAP	52	48	6
TAP	52	72	7
TAP	52	96	6
BRK	52	144	0
BRK	52	144	5
TAP	52	192	2
TAP	52	216	3
TAP	52	240	2
TAP	52	264	3
TAP	52	288	1
TAP	52	312	4
TAP	52	336	1
BRK	53	0	2
BRK	53	0	7
TAP	53	48	1
TAP	53	72	0
TAP	53	96	1
BRK	53	144	2
BRK	53	144	7
TAP	53	192	5
TAP	53	216	4
TAP	53	240	6
TAP	53	264	3
TAP	53	288	5
TAP	53	312	4
TAP	53	336	6
BRK	54	0	0
BRK	54	0	5
TAP	54	48	6
TAP	54	72	7
TAP	54	96	6
BRK	54	144	0
BRK	54	144	5
TAP	54	192	2
TAP	54	216	3
TAP	54	240	1
TAP	54	264	4
TAP	54	288	2
TAP	54	312	3
TAP	54	336	2
BRK	55	0	1
BRK	55	0	4
TAP	55	48	2
TAP	55	72	3
TAP	55	96	2
BRK	55	144	1
BRK	55	144	4
TAP	55	192	5
TAP	55	216	0
TAP	55	240	6
TAP	55	264	1
TAP	55	288	7
TAP	55	312	2
TAP	55	336	0
BRK	56	0	3
BRK	56	0	6
TAP	56	48	5
TAP	56	72	4
TAP	56	96	5
BRK	56	144	3
BRK	56	144	6
TAP	56	192	2
TAP	56	216	7
TAP	56	240	1
TAP	56	264	6
TAP	56	288	0
TAP	56	312	5
TAP	56	336	7
BRK	57	0	1
BRK	57	0	4
TAP	57	48	2
TAP	57	72	3
TAP	57	96	2
BRK	57	144	1
BRK	57	144	4
TAP	57	192	5
TAP	57	216	0
TAP	57	240	6
TAP	57	264	1
TAP	57	288	7
TAP	57	312	2
TAP	57	336	0
BRK	58	0	3
BRK	58	0	6
TAP	58	48	5
TAP	58	72	4
TAP	58	96	5
BRK	58	144	3
BRK	58	144	6
XTP	58	192	0
XTP	58	192	4
TAP	58	224	1
TAP	58	224	5
TAP	58	256	2
TAP	58	256	6
XTP	58	288	3
XTP	58	288	7
TAP	58	320	2
TAP	58	320	6
TAP	58	352	1
TAP	58	352	5
BRK	59	0	0
BST	59	0	4
SCR	59	0	4	96	1056	3
TAP	62	192	3
TAP	62	192	4
STR	63	0	6
SXR	63	0	6	96	576	3
TTP	63	192	1	E	0	M1
TTP	64	0	3	E	0	M1
TTP	64	192	0	B	0	M1
TTP	64	192	7	B	0	M1
STR	65	0	1
SXL	65	0	1	96	576	4
TTP	65	0	3	B	0	M1
TTP	65	0	4	B	0	M1
TTP	65	0	4	E	0	M1
TTP	66	0	0	B	0	M1
TTP	66	0	0	E	0	M1
TTP	66	0	7	B	0	M1
TAP	67	0	4
TAP	67	0	5
TAP	67	96	5
TAP	67	192	5
TAP	67	288	5
TAP	67	320	3
TAP	67	352	4
TAP	68	0	2
TAP	68	96	2
TAP	68	192	2
TAP	68	288	2
TAP	68	320	4
TAP	68	352	3
TAP	69	0	5
TAP	69	96	5
TAP	69	192	5
TAP	69	288	5
TAP	69	320	3
TAP	69	352	4
TAP	70	0	2
TAP	70	96	2
TAP	70	128	4
TAP	70	160	3
TAP	70	192	5
TAP	70	224	3
TAP	70	256	4
TAP	70	288	2
TAP	70	320	4
TAP	70	352	3
TAP	71	0	2
TAP	71	0	5
TAP	71	96	4
TAP	71	96	5
TAP	71	192	3
TAP	71	192	5
TAP	71	288	2
TAP	71	288	5
HLD	72	0	1	96
TAP	72	0	5
TAP	72	96	5
HLD	72	192	2	96
TAP	72	192	5
TAP	72	288	5
THO	73	0	0	672	C	0	M1
TAP	73	0	5
TAP	73	96	5
TAP	73	192	5
TAP	73	288	5
TAP	74	0	6
TAP	74	96	6
TAP	74	192	7
TAP	74	288	7
TAP	75	0	0
HLD	75	0	7	384
TAP	75	48	0
TAP	75	96	0
TAP	75	144	0
TAP	75	192	0
TAP	75	240	0
TAP	75	288	0
TAP	75	336	0
TAP	76	0	0
TAP	76	32	7
TAP	76	64	1
TAP	76	96	6
TAP	76	128	2
TAP	76	160	5
TAP	76	192	3
TAP	76	224	4
TAP	76	256	2
TAP	76	288	5
TAP	76	320	1
TAP	76	352	6
BST	77	0	0
SLR	77	0	0	96	288	6
BST	77	0	7
SLL	77	0	7	96	288	1
TAP	78	240	2
TAP	78	240	3
TAP	78	288	4
TAP	78	288	5
TAP	78	336	0
TAP	78	336	7
STR	79	0	2
SI_	79	0	2	96	48	7
STR	79	0	6
SI_	79	0	6	96	48	3
TAP	79	96	2
TAP	79	96	6
TAP	79	192	1
TAP	79	192	5
TAP	79	240	1
TAP	79	240	5
TAP	79	256	2
TAP	79	256	6
TAP	79	272	3
TAP	79	272	7
TAP	79	288	0
TAP	79	288	4
TAP	80	0	2
STR	80	0	7
SI_	80	0	7	96	48	3
STR	80	48	3
SI_	80	48	3	96	48	7
TAP	80	48	6
TAP	80	96	2
TAP	80	96	7
TAP	80	144	1
TAP	80	192	0
TAP	80	204	1
TAP	80	216	2
TAP	80	228	3
TAP	80	240	4
TAP	80	252	5
TAP	80	264	6
TAP	80	276	7
BRK	80	288	0
BRK	80	288	4
STR	81	0	2
SI_	81	0	2	96	48	7
TAP	81	0	5
TAP	81	48	3
TAP	81	96	2
STR	81	96	5
SI_	81	96	5	96	48	0
TAP	81	144	4
TAP	81	192	2
TAP	81	192	5
TAP	81	240	3
STR	81	288	1
SI_	81	288	1	96	48	5
TAP	81	288	7
TAP	81	336	0
TAP	82	0	1
STR	82	0	6
SI_	82	0	6	96	48	2
STR	82	96	0
SF_	82	96	0	96	48	4
TAP	82	96	6
BRK	82	192	0
TAP	82	288	1
TAP	82	304	2
TAP	82	320	3
TAP	82	336	6
TAP	82	352	5
TAP	82	368	4
HLD	83	0	1	48
TAP	83	48	0
TAP	83	72	1
TAP	83	96	0
TAP	83	144	2
TAP	83	144	7
TAP	83	192	1
TAP	83	216	3
TAP	83	240	2
TAP	83	264	4
TAP	83	288	3
TAP	83	312	5
TAP	83	336	4
TAP	83	360	6
TAP	84	0	0
TAP	84	24	3
TAP	84	48	2
TAP	84	72	7
STR	84	96	4
SI_	84	96	4	96	48	1
TAP	84	120	5
TAP	84	144	3
TAP	84	168	6
BST	84	192	4
SI_	84	192	4	96	48	7
BRK	84	288	0
BRK	84	288	4
TAP	85	0	1
STR	85	0	5
SLL	85	0	5	96	48	7
TAP	85	72	3
TAP	85	96	5
TAP	85	144	2
STR	85	192	1
SLL	85	192	1	96	48	3
TAP	85	264	7
TAP	85	288	1
TAP	85	336	5
TAP	86	0	5
TAP	86	48	6
TAP	86	48	7
TAP	86	96	0
TAP	86	96	1
TAP	86	144	2
TAP	86	144	3
TAP	86	192	5
TAP	86	216	4
TAP	86	240	5
TAP	86	264	4
TAP	86	288	7
TAP	86	304	6
TAP	86	320	5
TAP	86	336	1
TAP	86	352	2
TAP	86	368	3
XST	87	0	0
SI_	87	0	0	96	48	5
XST	87	0	4
SI_	87	0	4	96	48	1
TAP	87	96	0
TAP	87	96	4
TAP	87	192	2
TAP	87	192	6
TAP	87	240	2
TAP	87	240	6
TAP	87	256	1
TAP	87	256	5
TAP	87	272	0
TAP	87	272	4
TAP	87	288	3
TAP	87	288	7
STR	88	0	0
SI_	88	0	0	96	48	4
TAP	88	0	5
TAP	88	48	1
STR	88	48	4
SI_	88	48	4	96	48	0
TAP	88	96	0
TAP	88	96	5
TAP	88	144	6
TAP	88	192	7
TAP	88	204	6
TAP	88	216	5
TAP	88	228	4
TAP	88	240	3
TAP	88	252	2
TAP	88	264	1
TAP	88	276	0
BRK	88	288	3
BRK	88	288	7
TAP	89	0	2
STR	89	0	5
SI_	89	0	5	96	48	0
TAP	89	48	4
STR	89	96	2
SI_	89	96	2	96	48	7
TAP	89	96	5
TAP	89	144	3
TAP	89	192	2
TAP	89	192	4
TAP	89	240	5
TAP	89	288	2
TAP	89	288	6
TAP	89	336	3
TAP	89	336	7
XST	90	0	0
SI_	90	0	0	96	48	5
XST	90	0	4
SI_	90	0	4	96	48	1
XST	90	96	0
SCR	90	96	0	96	48	3
XST	90	96	4
SCR	90	96	4	96	48	7
XST	90	192	0
SI_	90	192	0	96	48	4
XST	90	192	4
SI_	90	192	4	96	48	0
BRK	90	288	0
BRK	90	288	4
TTP	90	289	0	C	1	M1
TAP	91	0	2
TAP	91	0	7
TAP	91	48	1
TAP	91	72	0
TAP	91	96	1
TAP	91	144	2
TAP	91	144	3
TAP	91	192	5
TAP	91	216	7
TAP	91	240	6
TAP	91	264	0
TAP	91	288	7
TAP	91	312	1
TAP	91	336	0
TAP	91	360	2
TAP	92	0	3
TAP	92	24	1
TAP	92	48	4
TAP	92	72	2
TAP	92	96	5
TAP	92	120	3
TAP	92	144	6
TAP	92	168	4
XTP	92	192	6
TTP	92	200	6	E	0	M1
TTP	92	208	5	B	0	M1
TTP	92	216	4	B	0	M1
TTP	92	224	4	E	0	M1
XTP	92	240	1
TTP	92	248	2	E	0	M1
TTP	92	256	2	B	0	M1
TTP	92	264	3	B	0	M1
TTP	92	272	4	E	0	M1
TTP	92	288	0	C	1	M1
BRK	93	0	0
BRK	93	0	6
TAP	93	48	7
TAP	93	72	7
TAP	93	96	7
BRK	93	144	1
BRK	93	144	5
TAP	93	192	0
TAP	93	216	3
TAP	93	240	2
TAP	93	264	6
TAP	93	288	4
TAP	93	312	5
TAP	93	336	0
BRK	94	0	1
BRK	94	0	7
TAP	94	48	0
TAP	94	72	0
TAP	94	96	0
BRK	94	144	2
BRK	94	144	6
TAP	94	192	7
TAP	94	216	4
TAP	94	240	5
TAP	94	264	1
TAP	94	288	3
TAP	94	312	2
TAP	94	336	7
BRK	95	0	0
BRK	95	0	6
TAP	95	48	7
TAP	95	72	7
TAP	95	96	7
BRK	95	144	1
BRK	95	144	5
TAP	95	192	0
TAP	95	216	3
TAP	95	240	2
TAP	95	264	7
TAP	95	288	4
TAP	95	312	5
TAP	95	336	0
BRK	96	0	1
BRK	96	0	7
TAP	96	48	0
TAP	96	72	0
TAP	96	96	0
BRK	96	144	2
BRK	96	144	6
XTP	96	192	0
XTP	96	192	4
TAP	96	224	0
TAP	96	224	4
TAP	96	256	0
TAP	96	256	4
XTP	96	288	3
XTP	96	288	7
TAP	96	320	3
TAP	96	320	7
TAP	96	352	3
TAP	96	352	7
XTP	97	0	0
XTP	97	0	4
TAP	97	24	1
TAP	97	48	2
TAP	97	72	3
TAP	97	96	4
TAP	97	96	7
TAP	97	120	6
TAP	97	144	5
TAP	97	168	4
XTP	97	192	1
TAP	97	204	2
TAP	97	216	1
TAP	97	240	7
TAP	97	264	0
TAP	97	288	7
TAP	97	312	0
TAP	97	336	7
XTP	98	0	3
XTP	98	0	7
TAP	98	24	6
TAP	98	48	5
TAP	98	72	4
TAP	98	96	0
TAP	98	96	3
TAP	98	120	1
TAP	98	144	2
TAP	98	168	3
XTP	98	192	6
TAP	98	204	5
TAP	98	216	6
TAP	98	240	0
TAP	98	264	7
TAP	98	288	0
TAP	98	312	7
TAP	98	336	0
XTP	99	0	0
XTP	99	0	4
TAP	99	24	1
TAP	99	24	5
TAP	99	48	2
TAP	99	48	6
TAP	99	72	3
TAP	99	72	7
TAP	99	96	0
TAP	99	120	1
TAP	99	144	2
TAP	99	168	3
BRK	99	192	0
TAP	99	208	4
BRK	99	224	0
TAP	99	240	4
BRK	99	256	0
TAP	99	272	4
BRK	99	288	0
TAP	99	304	4
BRK	99	320	0
TAP	99	336	4
BRK	99	352	0
TAP	99	368	4
BST	100	0	0
SF_	100	0	0	96	48	4
BST	100	192	7
SF_	100	192	7	96	48	3
TTP	100	288	0	C	1	M1
BRK	101	0	0
BRK	101	8	1
BRK	101	8	7
BRK	101	16	2
BRK	101	16	6
BRK	101	24	3
BRK	101	24	5
BST	101	32	4
SCL	101	32	4	96	1024	4
SCR	101	32	4	96	1024	4
TTP	105	0	0	C	0	M1
TAP	106	0	2
HLD	106	0	5	192
HLD	106	192	4	96
HLD	106	288	3	96
HLD	107	0	2	192
HLD	107	192	5	192
TAP	108	0	2
TAP	108	12	3
TAP	108	24	4
BST	108	36	5
SI_	108	36	5	96	1020	2
SI_	108	36	5	96	1020	2

T_REC_TAP	665
T_REC_BRK	115
T_REC_XTP	62
T_REC_HLD	55
T_REC_XHO	1
T_REC_STR	43
T_REC_BST	20
T_REC_XST	16
T_REC_TTP	33
T_REC_THO	1
T_REC_SLD	81
T_REC_ALL	1092
T_NUM_TAP	819
T_NUM_BRK	135
T_NUM_HLD	57
T_NUM_SLD	81
T_NUM_ALL	1092
T_JUDGE_TAP	954
T_JUDGE_HLD	104
T_JUDGE_SLD	81
T_JUDGE_ALL	1139
TTM_EACHPAIRS	199
TTM_SCR_TAP	409500
TTM_SCR_BRK	351000
TTM_SCR_HLD	57000
TTM_SCR_SLD	121500
TTM_SCR_ALL	939000
TTM_SCR_S	897750
TTM_SCR_SS	925500
TTM_RAT_ACV	10145

